<?xml version="1.0" standalone="no"?>
<!DOCTYPE svg PUBLIC "-//W3C//DTD SVG 1.1//EN" "http://www.w3.org/Graphics/SVG/1.1/DTD/svg11.dtd" >
<svg>
<metadata>
Created by FontForge 20120731 at Sun Nov 17 18:24:15 2013
 By root
Copyright (c) Joseph Spicer, 2004. All rights reserved.
</metadata>
<defs>
<font id="Anquietas" horiz-adv-x="348" >
  <font-face 
    font-family="Anquietas"
    font-weight="400"
    font-stretch="normal"
    units-per-em="1000"
    panose-1="1 0 5 0 0 0 0 2 0 4"
    ascent="800"
    descent="-200"
    x-height="700"
    cap-height="700"
    bbox="0 -175 348 700"
    underline-thickness="50"
    underline-position="-50"
    unicode-range="U+000D-20AC"
  />
<missing-glyph 
 />
    <glyph glyph-name=".notdef" 
 />
    <glyph glyph-name=".null" horiz-adv-x="0" 
 />
    <glyph glyph-name="nonmarkingreturn" 
 />
    <glyph glyph-name="space" unicode=" " 
 />
    <glyph glyph-name="e" unicode="e" 
d="M217 175h-87v-175h-87v700h87v-350h174v-350h-87v175zM217 700h87v-175h-87v175z" />
    <glyph glyph-name="f" unicode="f" 
d="M43 700h261v-700h-87v525h-174v175z" />
    <glyph glyph-name="g" unicode="g" 
d="M43 700h87v-525h174v-175h-261v700zM217 700h87v-350h-87v350z" />
    <glyph glyph-name="h" unicode="h" 
d="M43 350h174v175h-174v175h261v-700h-87v175h-87v-175h-87v350z" />
    <glyph glyph-name="i" unicode="i" 
d="M43 175h87v175h87v-175h87v-175h-261v175zM43 700h261v-175h-261v175z" />
    <glyph glyph-name="j" unicode="j" 
d="M304 350h-87v175h-87v-175h-87v350h261v-350zM304 0h-261v175h261v-175z" />
    <glyph glyph-name="k" unicode="k" horiz-adv-x="261" 
d="M43 175h87v175h-87v350h174v-700h-174v175z" />
    <glyph glyph-name="l" unicode="l" 
d="M43 525h87v175h174v-175h-87v-175h87v-175h-87v-175h-174v175h87v175h-87v175z" />
    <glyph glyph-name="m" unicode="m" 
d="M43 175h87v175h87v-175h87v-175h-261v175zM217 700h87v-350h-87v350zM43 700h87v-350h-87v350z" />
    <glyph glyph-name="n" unicode="n" 
d="M43 350h87v350h87v-175h87v-525h-87v175h-87v-175h-87v350z" />
    <glyph glyph-name="o" unicode="o" 
d="M130 350h-87v350h87v-175h87v-175h87v-350h-87v175h-87v175zM43 175h87v-175h-87v175zM217 700h87v-175h-87v175z" />
    <glyph glyph-name="p" unicode="p" 
d="M217 700h87v-175h-87v175zM217 175h87v-175h-87v175zM43 700h87v-700h-87v700z" />
    <glyph glyph-name="r" unicode="r" 
d="M43 350h87v-175h87v175h87v-350h-261v350zM43 700h261v-175h-261v175z" />
    <glyph glyph-name="s" unicode="s" 
d="M217 350h-87v-350h-87v700h87v-175h87v175h87v-525h-87v175z" />
    <glyph glyph-name="t" unicode="t" 
d="M217 700h87v-175h-87v175zM43 700h87v-175h-87v175zM304 0h-87v175h-87v-175h-87v350h261v-350z" />
    <glyph glyph-name="u" unicode="u" 
d="M43 700h261v-700h-87v525h-174v175z" />
    <glyph glyph-name="v" unicode="v" 
d="M43 175h87v350h-87v175h261v-700h-261v175z" />
    <glyph glyph-name="w" unicode="w" 
d="M217 700h87v-700h-87v175h-87v175h-87v350h87v-175h87v175zM43 175h87v-175h-87v175z" />
    <glyph glyph-name="y" unicode="y" 
d="M217 525h-87v-350h87v-175h-174v700h261v-350h-87v175z" />
    <glyph glyph-name="z" unicode="z" 
d="M43 700h261v-175h-87v-350h87v-175h-87v175h-87v-175h-87v350h87v175h-87v175z" />
    <glyph glyph-name="c" unicode="c" 
d="M43 700h261v-700h-87v525h-87v-525h-87v700z" />
    <glyph glyph-name="d" unicode="d" 
d="M43 700h261v-175h-87v-175h87v-350h-261v350h87v175h-87v175z" />
    <glyph glyph-name="a" unicode="a" 
d="M43 700h261v-700h-87v175h-174v175h174v175h-174v175z" />
    <glyph glyph-name="A" unicode="A" 
d="M43 700h261v-700h-87v175h-174v175h174v175h-174v175z" />
    <glyph glyph-name="b" unicode="b" 
d="M43 175h174v175h-87v175h-87v175h261v-700h-261v175z" />
    <glyph glyph-name="B" unicode="B" 
d="M43 175h174v175h-87v175h-87v175h261v-700h-261v175z" />
    <glyph glyph-name="C" unicode="C" 
d="M43 700h261v-700h-87v525h-87v-525h-87v700z" />
    <glyph glyph-name="D" unicode="D" 
d="M43 700h261v-175h-87v-175h87v-350h-261v350h87v175h-87v175z" />
    <glyph glyph-name="E" unicode="E" 
d="M217 175h-87v-175h-87v700h87v-350h174v-350h-87v175zM217 700h87v-175h-87v175z" />
    <glyph glyph-name="F" unicode="F" 
d="M43 700h261v-700h-87v525h-174v175z" />
    <glyph glyph-name="G" unicode="G" 
d="M43 700h87v-525h174v-175h-261v700zM217 700h87v-350h-87v350z" />
    <glyph glyph-name="H" unicode="H" 
d="M43 350h174v175h-174v175h261v-700h-87v175h-87v-175h-87v350z" />
    <glyph glyph-name="I" unicode="I" 
d="M43 175h87v175h87v-175h87v-175h-261v175zM43 700h261v-175h-261v175z" />
    <glyph glyph-name="J" unicode="J" 
d="M304 350h-87v175h-87v-175h-87v350h261v-350zM304 0h-261v175h261v-175z" />
    <glyph glyph-name="K" unicode="K" horiz-adv-x="261" 
d="M43 175h87v175h-87v350h174v-700h-174v175z" />
    <glyph glyph-name="L" unicode="L" 
d="M43 525h87v175h174v-175h-87v-175h87v-175h-87v-175h-174v175h87v175h-87v175z" />
    <glyph glyph-name="M" unicode="M" 
d="M43 175h87v175h87v-175h87v-175h-261v175zM217 700h87v-350h-87v350zM43 700h87v-350h-87v350z" />
    <glyph glyph-name="N" unicode="N" 
d="M43 350h87v350h87v-175h87v-525h-87v175h-87v-175h-87v350z" />
    <glyph glyph-name="O" unicode="O" 
d="M130 350h-87v350h87v-175h87v-175h87v-350h-87v175h-87v175zM43 175h87v-175h-87v175zM217 700h87v-175h-87v175z" />
    <glyph glyph-name="P" unicode="P" 
d="M217 700h87v-175h-87v175zM217 175h87v-175h-87v175zM43 700h87v-700h-87v700z" />
    <glyph glyph-name="R" unicode="R" 
d="M43 350h87v-175h87v175h87v-350h-261v350zM43 700h261v-175h-261v175z" />
    <glyph glyph-name="S" unicode="S" 
d="M217 350h-87v-350h-87v700h87v-175h87v175h87v-525h-87v175z" />
    <glyph glyph-name="T" unicode="T" 
d="M217 700h87v-175h-87v175zM43 700h87v-175h-87v175zM304 0h-87v175h-87v-175h-87v350h261v-350z" />
    <glyph glyph-name="U" unicode="U" 
d="M43 700h261v-700h-87v525h-174v175z" />
    <glyph glyph-name="V" unicode="V" 
d="M43 175h87v350h-87v175h261v-700h-261v175z" />
    <glyph glyph-name="W" unicode="W" 
d="M217 700h87v-700h-87v175h-87v175h-87v350h87v-175h87v175zM43 175h87v-175h-87v175z" />
    <glyph glyph-name="Y" unicode="Y" 
d="M217 525h-87v-350h87v-175h-174v700h261v-350h-87v175z" />
    <glyph glyph-name="Z" unicode="Z" 
d="M43 700h261v-175h-87v-350h87v-175h-87v175h-87v-175h-87v350h87v175h-87v175z" />
    <glyph glyph-name="zero" unicode="0" 
d="M217 87v-87h-87v87h-87v88v525h261v-613h-87zM217 525h-87v-350h87v350z" />
    <glyph glyph-name="one" unicode="1" 
d="M43 700h87v-175h-87v175zM217 87v-87h-87v87h-87v88h261v-88h-87z" />
    <glyph glyph-name="two" unicode="2" 
d="M43 700h174v-175h-174v175zM217 87v-87h-87v87h-87v88h261v-88h-87z" />
    <glyph glyph-name="three" unicode="3" 
d="M43 700h261v-175h-261v175zM217 87v-87h-87v87h-87v88h261v-88h-87z" />
    <glyph glyph-name="four" unicode="4" 
d="M43 700h261v-175h-174v-175h-87v350zM217 87v-87h-87v87h-87v88h261v-88h-87z" />
    <glyph glyph-name="five" unicode="5" 
d="M43 700h261v-175h-87v-175h-174v350zM217 87v-87h-87v87h-87v88h261v-88h-87z" />
    <glyph glyph-name="six" unicode="6" 
d="M43 700h261v-350h-261v350zM217 87v-87h-87v87h-87v88h261v-88h-87z" />
    <glyph glyph-name="seven" unicode="7" 
d="M217 87v-87h-87v87h-87v88v525h261v-350h-174v-175h174v-88h-87z" />
    <glyph glyph-name="eight" unicode="8" 
d="M217 87v-87h-87v87h-87v613h261v-350h-87v-175h87v-88h-87z" />
    <glyph glyph-name="nine" unicode="9" 
d="M217 87v-87h-87v87h-87v613h261v-613h-87z" />
    <glyph glyph-name="exclam" unicode="!" 
d="M43 175h174v-175h-174v175zM33 700h194l-10 -420h-174z" />
    <glyph glyph-name="quotedbl" unicode="&#x22;" 
d="M43 700h87v-175h-87v175zM217 700h87v-175h-87v175z" />
    <glyph glyph-name="numbersign" unicode="#" 
d="M140 700v-700h-87v700h87zM294 700v-700h-87v700h87zM348 438h-348v87h348v-87zM348 175h-348v87h348v-87z" />
    <glyph glyph-name="quotesingle" unicode="'" 
d="M130 700h87v-175h-87v175z" />
    <glyph glyph-name="parenleft" unicode="(" 
d="M130 350q0 -37 2.5 -69.5t13.5 -55.5t32.5 -36.5t58.5 -13.5h67v-175h-87q-37 0 -69 13.5t-55.5 36.5t-36.5 55.5t-13 69.5v350q0 38 13 70t36.5 55t55.5 36.5t69 13.5h87v-175h-67q-37 0 -58.5 -13.5t-32.5 -36.5t-13.5 -55t-2.5 -70z" />
    <glyph glyph-name="bracketleft" unicode="[" 
d="M130 175h174v-175h-261v700h261v-175h-174v-350z" />
    <glyph glyph-name="backslash" unicode="\" 
d="M130 700l174 -700h-87l-174 700h87z" />
    <glyph glyph-name="bracketright" unicode="]" 
d="M217 525h-174v175h261v-700h-261v175h174v350z" />
    <glyph glyph-name="asciicircum" unicode="^" 
d="M173 545l-43 -195h-87l87 350h87l87 -350h-87z" />
    <glyph glyph-name="underscore" unicode="_" 
d="M304 -175h-261v175h261v-175z" />
    <glyph glyph-name="braceleft" unicode="{" 
d="M43 438h60v87q0 38 13 70t36.5 55t55.5 36.5t69 13.5h27v-175h-7q-37 0 -58.5 -13.5t-32.5 -36.5t-13.5 -55t-2.5 -70q0 -37 2.5 -69.5t13.5 -55.5t32.5 -36.5t58.5 -13.5h7v-175h-27q-37 0 -69 13.5t-55.5 36.5t-36.5 55.5t-13 69.5v88h-60v175z" />
    <glyph glyph-name="bar" unicode="|" 
d="M217 700v-700h-87v700h87z" />
    <glyph glyph-name="asciitilde" unicode="~" 
d="M13 390l50 270h87l67 -145l30 105h87l-50 -270h-87l-67 145l-30 -105h-87z" />
    <glyph glyph-name="parenright" unicode=")" 
d="M217 350q0 38 -2.5 70t-13.5 55t-32 36.5t-59 13.5h-67v175h87q38 0 69.5 -13.5t55 -36.5t36.5 -55t13 -70v-350q0 -37 -13 -69.5t-36.5 -55.5t-55 -36.5t-69.5 -13.5h-87v175h67q38 0 59 13.5t32 36.5t13.5 55.5t2.5 69.5z" />
    <glyph glyph-name="comma" unicode="," 
d="M130 0h-87v175h174v-350h-87v175z" />
    <glyph glyph-name="period" unicode="." 
d="M43 175h174v-175h-174v175z" />
    <glyph glyph-name="slash" unicode="/" 
d="M304 700l-174 -700h-87l174 700h87z" />
    <glyph glyph-name="colon" unicode=":" 
d="M43 175h174v-175h-174v175zM43 700h174v-175h-174v175z" />
    <glyph glyph-name="uni037E" 
 />
    <glyph glyph-name="equal" unicode="=" 
d="M304 350h-261v175h261v-175zM304 0h-261v175h261v-175z" />
    <glyph glyph-name="hyphen" unicode="-" 
d="M304 175h-261v175h261v-175z" />
    <glyph glyph-name="hyphen" unicode="&#xad;" 
d="M304 175h-261v175h261v-175z" />
    <glyph glyph-name="semicolon" unicode=";" 
d="M43 700h174v-175h-174v175zM130 0h-87v175h174v-350h-87v175z" />
    <glyph glyph-name="semicolon" unicode="&#x37e;" 
d="M43 700h174v-175h-174v175zM130 0h-87v175h174v-350h-87v175z" />
    <glyph glyph-name="percent" unicode="%" 
d="M304 700l-174 -700h-87l174 700h87zM43 700h87v-175h-87v175zM217 175h87v-175h-87v175z" />
    <glyph glyph-name="dollar" unicode="$" 
d="M130 -66q-46 20 -66.5 79t-20.5 142h87q0 -35 8.5 -60t34.5 -25t35 25t9 60t-10.5 53t-43.5 22q-69 8 -100 47.5t-31 102.5q0 88 23 148.5t75 76.5v95h87v-104q40 -24 58 -81t18 -135h-87q0 35 -8.5 60t-34.5 25t-35 -25t-9 -60t10.5 -53t43.5 -22q69 -8 100 -47.5
t31 -102.5q0 -83 -21 -142t-66 -79v-109h-87v109z" />
    <glyph glyph-name="ampersand" unicode="&#x26;" 
d="M130 700h87v-99q46 -22 67 -87.5t21 -155.5h-87q0 35 -8.5 60t-34.5 25t-35 -25t-9 -60q0 -6 2 -15.5t7 -17.5t13 -14t20 -6h45v-75h-43q-13 0 -21.5 -5.5t-13.5 -14t-7 -17.5t-2 -15q0 -35 9 -60t35 -25t34.5 25t8.5 60h87q0 -45 -5 -84.5t-16 -71.5t-27.5 -54.5
t-39.5 -33.5v-109h-87v107q-45 16 -65.5 67t-20.5 139q0 17 2.5 36.5t7.5 38t12.5 33t17.5 21.5q-10 7 -17.5 22t-12.5 33.5t-7.5 38.5t-2.5 37q0 88 20.5 138.5t65.5 66.5v97z" />
    <glyph glyph-name="plus" unicode="+" 
d="M130 175h-87v175h87v175h87v-175h87v-175h-87v-175h-87v175z" />
    <glyph glyph-name="question" unicode="?" 
d="M130 235q0 33 6.5 53t16 33.5t21 23.5t21 22t16 29t6.5 44q0 35 -9 60t-35 25t-34.5 -25t-8.5 -60h-87q0 54 7.5 101t23 82.5t40.5 56t59 20.5q35 0 59.5 -20.5t40.5 -56t23.5 -82.5t7.5 -101q0 -49 -13.5 -75.5t-30 -45.5t-30 -36.5t-13.5 -47.5h-87zM130 175h87v-175
h-87v175z" />
    <glyph glyph-name="less" unicode="&#x3c;" 
d="M43 258l164 267h97l-164 -267l164 -258h-97z" />
    <glyph glyph-name="greater" unicode="&#x3e;" 
d="M141 0h-97l164 258l-164 267h97l164 -267z" />
    <glyph glyph-name="at" unicode="@" 
d="M304 88h-109v174h-87v88h87v88h-87v87h131v-350h21v438h-173v-613h217v-87h-261v787h261v-612z" />
    <glyph glyph-name="grave" unicode="`" 
d="M43 700h174l87 -350h-87z" />
    <glyph glyph-name="asterisk" unicode="*" 
d="M283 617l44 -75l-68 -40l68 -40l-44 -75l-66 39v-76h-87v76l-66 -39l-44 75l68 40l-68 40l44 75l66 -39v77h87v-77z" />
    <glyph glyph-name="uni00A0" unicode="&#xa0;" 
 />
    <glyph glyph-name="sterling" unicode="&#xa3;" 
d="M60 175q0 30 -2.5 57t-6 57t-6 66t-2.5 85q0 54 7.5 101t23.5 82.5t41 56t59 20.5q35 0 59.5 -20.5t40 -56t23 -82.5t7.5 -101h-87q0 35 -8.5 60t-34.5 25t-35 -25t-9 -60q0 -41 2.5 -69.5t6 -55.5t6 -59t2.5 -81h157v-175h-261v175h17zM13 350h204v-95h-204v95z" />
    <glyph glyph-name="quotedblleft" unicode="&#x201c;" 
d="M43 700h87v-175h-87v175zM217 700h87v-175h-87v175z" />
    <glyph glyph-name="quotedblright" unicode="&#x201d;" 
d="M43 700h87v-175h-87v175zM217 700h87v-175h-87v175z" />
    <glyph glyph-name="quoteleft" unicode="&#x2018;" 
d="M130 700h87v-175h-87v175z" />
    <glyph glyph-name="quoteright" unicode="&#x2019;" 
d="M130 700h87v-175h-87v175z" />
    <glyph glyph-name="Euro" unicode="&#x20ac;" 
d="M3 330h40v45h-30v45h30v20q0 54 7.5 101t23.5 82.5t41 56t59 20.5q35 0 59.5 -20.5t40 -56t23 -82.5t7.5 -101h-87q0 35 -8.5 60t-34.5 25t-35 -25t-9 -60v-20h67v-45h-67v-45h57v-45h-57v-25q0 -35 9 -60t35 -25t34.5 25t8.5 60h87q0 -54 -7.5 -101t-23 -82.5t-40 -56
t-59.5 -20.5q-34 0 -59 20.5t-41 56t-23.5 82.5t-7.5 101v25h-40v45z" />
    <glyph glyph-name="uni0000" 
 />
    <glyph glyph-name="uni0000" 
 />
    <glyph glyph-name="uni000D" unicode="&#xd;" 
 />
    <glyph glyph-name="uni0020" 
 />
    <glyph glyph-name="braceright" unicode="}" 
d="M305 263h-60v-88q0 -37 -13 -69.5t-36.5 -55.5t-55 -36.5t-69.5 -13.5h-27v175h7q38 0 59 13.5t32 36.5t13.5 55.5t2.5 69.5q0 38 -2.5 70t-13.5 55t-32 36.5t-59 13.5h-7v175h27q38 0 69.5 -13.5t55 -36.5t36.5 -55t13 -70v-87h60v-175z" />
    <glyph glyph-name="cent" unicode="&#xa2;" 
d="M43 327h-40v45h40v68q0 54 7.5 101t23.5 82.5t41 56t59 20.5q35 0 59.5 -20.5t40 -56t23 -82.5t7.5 -101h-87q0 35 -8.5 60t-34.5 25t-35 -25t-9 -60v-68h67v-45h-67v-67q0 -35 9 -60t35 -25t34.5 25t8.5 60h87q0 -54 -7.5 -101t-23 -82.5t-40 -56t-59.5 -20.5
q-34 0 -59 20.5t-41 56t-23.5 82.5t-7.5 101v67z" />
    <glyph glyph-name="x" unicode="x" 
d="M43 700h87v-350h87v350h87v-700h-87v175h-87v-175h-87v700z" />
    <glyph glyph-name="dagger" unicode="&#x2020;" 
d="M217 0h-87v350h-87v175h87v175h87v-175h87v-175h-87v-350z" />
    <glyph glyph-name="daggerdbl" unicode="&#x2021;" 
d="M304 525h-87v-175h87v-175h-87v-175h-87v175h-87v175h87v175h-87v175h261v-175z" />
    <glyph glyph-name="X" unicode="X" 
d="M43 700h87v-350h87v350h87v-700h-87v175h-87v-175h-87v700z" />
    <glyph glyph-name="Q" unicode="Q" 
d="M217 175h-87v175h-87v175h87v175h87v-175h87v-175h-87v-175h87v-175h-87v175zM43 175h87v-175h-87v175z" />
    <glyph glyph-name="q" unicode="q" 
d="M217 175h-87v175h-87v175h87v175h87v-175h87v-175h-87v-175h87v-175h-87v175zM43 175h87v-175h-87v175z" />
  </font>
</defs>
</svg>
