<?xml version="1.0" standalone="no"?>
<!DOCTYPE svg PUBLIC "-//W3C//DTD SVG 1.1//EN" "http://www.w3.org/Graphics/SVG/1.1/DTD/svg11.dtd" >
<svg xmlns="http://www.w3.org/2000/svg">
<metadata>
This is a custom SVG webfont generated by Font Squirrel.
Copyright   :  2005 Microsoft Corporation All Rights Reserved
Designer    : Lucas de Groot
Foundry     : Microsoft Corporation
Foundry URL : httpwwwmicrosoftcomtypographyctfonts
</metadata>
<defs>
<font id="CalibriRegular" horiz-adv-x="1020" >
<font-face units-per-em="2048" ascent="1536" descent="-512" />
<missing-glyph horiz-adv-x="463" />
<glyph unicode="&#x9;" horiz-adv-x="463" />
<glyph unicode="&#xd;" horiz-adv-x="463" />
<glyph unicode=" "  horiz-adv-x="463" />
<glyph unicode="&#x09;" horiz-adv-x="463" />
<glyph unicode="&#xa0;" horiz-adv-x="463" />
<glyph unicode="!" horiz-adv-x="667" d="M266 104q0 33 4.5 55.5t16.5 35t32.5 18t51.5 5.5t51 -5.5t32.5 -18t17 -35t4.5 -55.5t-4.5 -54.5t-17 -35t-32.5 -19t-51 -5.5t-51.5 5.5t-32.5 19t-16.5 35t-4.5 54.5zM280 1327q-1 12 3 21t14.5 15t28 8.5t45.5 2.5q27 0 44.5 -3t28 -9t14.5 -14.5t4 -20.5l-17 -954 q0 -8 -3.5 -14t-12.5 -10t-23 -6t-35 -2t-35 2t-23 6t-12.5 10t-3.5 14z" />
<glyph unicode="&#x22;" horiz-adv-x="821" d="M139 1365q0 8 5 14t15 10t26.5 6t39.5 2q48 0 67 -8t19 -24l-23 -463q0 -8 -3 -14t-11 -10t-19.5 -6t-29.5 -2t-30 2t-19.5 6t-10.5 10t-3 14zM494 1365q0 8 5 14t15 10t26.5 6t39.5 2q24 0 40.5 -2t26.5 -6t14.5 -10t3.5 -14l-22 -463q0 -8 -3 -14t-11 -10t-19.5 -6 t-29.5 -2t-30 2t-19.5 6t-10.5 10t-3 14z" />
<glyph unicode="#" d="M36 427q0 17 3 29t7 19.5t10 11.5t14 4h134l41 332h-121q-15 0 -24.5 15t-9.5 47q0 35 9.5 50t24.5 15h136l41 321q1 7 4.5 12.5t12 9t23.5 5.5t38 2q24 0 38 -2t21.5 -5.5t9.5 -9t2 -11.5l-42 -322h278l39 321q1 7 5 12.5t12 9t23 5.5t39 2q23 0 37.5 -2t21.5 -5.5 t9.5 -9t1.5 -11.5l-40 -322h115q15 0 24.5 -15.5t9.5 -48.5q0 -17 -2.5 -29t-7 -19.5t-11 -11t-13.5 -3.5h-131l-40 -332h116q15 0 24.5 -15t9.5 -49q0 -17 -3 -29t-7 -19.5t-10.5 -11t-13.5 -3.5h-133l-42 -342q-1 -7 -4 -12.5t-11 -9t-22 -5t-37 -1.5t-38 1.5t-23 5t-11 9 t-2 12.5l42 342h-278l-42 -342q-2 -7 -4.5 -12.5t-10 -9t-21.5 -5t-37 -1.5q-24 0 -39 1.5t-23 5t-11 9t-2 12.5l41 342h-116q-15 0 -24.5 14.5t-9.5 48.5zM352 491h277l42 332h-279z" />
<glyph unicode="$" horiz-adv-x="1038" d="M96 160q0 22 2 36.5t6 24t10.5 13t15.5 3.5q13 0 37 -14.5t63.5 -32t96.5 -32.5t137 -15q142 0 215.5 56t73.5 152q0 59 -27 98.5t-71.5 68t-101 49t-115 41.5t-115 48t-100.5 67t-71 97.5t-27 141.5q0 67 23 125t69 101.5t116 71t163 33.5l20 202q1 6 3.5 11.5t9.5 9.5 t19 5.5t33 1.5q22 0 36.5 -2t22 -6.5t9.5 -10.5t2 -14l-22 -200q30 -3 62.5 -10.5t61 -17t51.5 -21t31.5 -19.5t12 -15t5.5 -16t3.5 -21t1.5 -27q0 -19 -1.5 -33t-4.5 -22t-8 -12t-12 -4q-11 0 -35 13t-60.5 28t-84.5 28t-107 13q-67 0 -114.5 -13t-77 -36.5t-43 -56.5 t-13.5 -72q0 -60 27.5 -100t72 -68t101.5 -48t116.5 -41.5t116.5 -47.5t101.5 -66t72 -97.5t27.5 -141.5q0 -80 -30.5 -145.5t-86.5 -112.5t-137 -75t-181 -33l-22 -217q-1 -6 -3.5 -11.5t-9.5 -9t-19.5 -5.5t-32.5 -2q-23 0 -36.5 2.5t-21.5 6t-10.5 10t-0.5 14.5l23 216 q-48 6 -89 15.5t-73 20.5t-54.5 23t-33 22.5t-14.5 27.5t-4 47z" />
<glyph unicode="%" horiz-adv-x="1464" d="M72 970q0 73 16.5 135t50.5 107t87.5 71t126.5 26q79 0 132.5 -27t85.5 -72.5t45 -106.5t13 -129q0 -77 -17 -140t-52 -107.5t-88.5 -69.5t-125.5 -25q-73 0 -125 23t-85 66.5t-48.5 106t-15.5 142.5zM213 976q0 -68 9.5 -113.5t27 -72t44 -37t60.5 -10.5q40 0 65.5 15 t41 44.5t22 71t6.5 95.5q0 56 -8 99.5t-24.5 72.5t-43.5 43.5t-64 14.5q-35 0 -61 -14t-42.5 -42t-24.5 -69.5t-8 -97.5zM835 323q0 73 16.5 135t50.5 107t87.5 71t126.5 26q79 0 132.5 -27t85.5 -72.5t45 -106.5t13 -129q0 -77 -17 -140t-52 -107.5t-88.5 -69.5t-125.5 -25 q-73 0 -125 23t-85 66.5t-48.5 106t-15.5 142.5zM976 329q0 -68 9.5 -113.5t27 -72t44 -37t60.5 -10.5q40 0 65.5 15t41 44.5t22 71t6.5 95.5q0 56 -8 99.5t-24.5 72.5t-43.5 43.5t-64 14.5q-35 0 -61 -14t-42.5 -42t-24.5 -69.5t-8 -97.5zM200.5 -5.5q1.5 9.5 9.5 21.5 l900 1289q5 8 12 13.5t17.5 8.5t24 4.5t34.5 1.5t34.5 -3.5t19.5 -10.5t4.5 -17t-9.5 -21l-901 -1289q-5 -9 -12 -13.5t-17 -8t-24 -5t-34 -1.5q-22 0 -35.5 4t-19 10.5t-4 16z" />
<glyph unicode="&#x26;" horiz-adv-x="1397" d="M0 1294zM108 341q0 55 15 104.5t47 96t83.5 90t124.5 87.5q-40 54 -68.5 98t-47 82t-26.5 72.5t-8 69.5q0 62 21 118.5t67.5 100t119.5 69t177 25.5q88 0 152.5 -19t107 -54t64 -84.5t21.5 -110.5q0 -59 -19 -108t-61 -95t-107.5 -91.5t-158.5 -95.5q34 -41 74 -85.5 t83.5 -89.5t89 -88.5t89.5 -83.5q20 27 36 61.5t28 73t18 78.5t6 81v36q0 10 3.5 16.5t11.5 11t23.5 6.5t40.5 2q22 0 37.5 -1t25.5 -4.5t14.5 -11t4.5 -20.5v-25q0 -56 -9.5 -110t-26 -105.5t-41 -98.5t-54.5 -87q45 -36 78.5 -60t57 -39t39 -21t25.5 -6t19 1t14.5 -3 t8.5 -16t3 -37t-1 -40t-3.5 -22.5t-8.5 -12.5t-22 -9t-42 -4q-20 0 -44 7t-56 24.5t-74.5 47.5t-99.5 76q-42 -34 -88.5 -63t-99 -49.5t-110 -32t-124.5 -11.5q-63 0 -119.5 11t-104.5 31.5t-86 51.5t-64.5 70.5t-41 88.5t-14.5 106zM287 358q0 -52 17.5 -95t51.5 -74.5 t85 -49t118 -17.5q41 0 80 8.5t74.5 23t67.5 35t59 43.5q-52 45 -103.5 93.5t-99.5 97.5t-92.5 97.5t-81.5 94.5q-50 -32 -83.5 -63.5t-54 -63t-29.5 -63.5t-9 -67zM403 1054q0 -27 7.5 -55t23 -58.5t38 -65.5t53.5 -78q73 41 122.5 75.5t79.5 66.5t43.5 64t13.5 68 q0 29 -10.5 55.5t-33.5 47t-58 32.5t-84 12q-53 0 -89.5 -13.5t-60 -36t-34.5 -52.5t-11 -62z" />
<glyph unicode="'" horiz-adv-x="452" d="M139 1365q0 8 5 14t15.5 10t27 6t39.5 2q24 0 40.5 -1.5t27 -6t15 -10.5t3.5 -14l-22 -463q0 -8 -3.5 -14t-11 -10t-19.5 -6t-30 -2t-30.5 2t-19.5 6t-10.5 10t-3.5 14z" />
<glyph unicode="(" horiz-adv-x="621" d="M133 537q0 113 15.5 223t44 218.5t69.5 213.5t92 208q1 4 5.5 7t12.5 6t22 4.5t36 1.5q23 0 37 -3t22 -8t9 -13t-3 -17q-95 -201 -141.5 -412.5t-46.5 -425.5q0 -215 47.5 -426t138.5 -414q5 -12 5.5 -20.5t-6.5 -14t-21.5 -8t-39.5 -2.5q-18 0 -31 1t-22.5 4t-15.5 7 t-9 9q-54 102 -95 206.5t-69 212.5t-42 218.5t-14 223.5z" />
<glyph unicode=")" horiz-adv-x="621" d="M122.5 -320.5q0.5 8.5 5.5 20.5q92 202 139 413.5t47 426.5q0 214 -47 425.5t-141 412.5q-4 9 -3 17t9 13t22 8t37 3q21 0 35 -1.5t22.5 -4.5t12.5 -6t6 -7q103 -205 161.5 -421.5t58.5 -441.5q0 -113 -14 -223.5t-42 -218.5t-68.5 -212.5t-94.5 -206.5q-3 -5 -9 -9 t-15.5 -7t-22.5 -4t-31 -1q-26 0 -40.5 2.5t-21 8t-6 14z" />
<glyph unicode="*" d="M158.5 911.5q-0.5 17.5 13.5 23.5l241 107l-241 106q-14 7 -13.5 24.5t23.5 56.5t38 48t27 0l212 -154l-28 261q-3 16 13 24t62 8t62 -8t13 -24l-28 -261l213 154q12 9 26.5 0t37.5 -49q23 -38 24 -55.5t-13 -24.5l-241 -106l241 -107q14 -6 13 -23.5t-24 -56.5 q-23 -40 -37.5 -49t-26.5 0l-213 155l28 -262q3 -15 -13 -23t-62 -8t-62 8t-13 23l28 262l-212 -155q-12 -9 -27 0t-38 49q-23 39 -23.5 56.5z" />
<glyph unicode="+" d="M70 576q0 18 3 31.5t8 22.5t11.5 13t14.5 4h329v364q0 8 4 14.5t12.5 11t23 7t34.5 2.5q21 0 35 -2.5t22.5 -7t12.5 -11t4 -14.5v-364h329q8 0 14.5 -4t12 -13t8 -22.5t2.5 -31.5q0 -19 -3 -32.5t-8 -22.5t-12 -13t-15 -4h-328v-364q0 -8 -4 -13.5t-12.5 -9.5t-22.5 -6.5 t-35 -2.5q-20 0 -34.5 2.5t-23 6.5t-12.5 9.5t-4 13.5v364h-328q-9 0 -15.5 4t-11.5 13t-8 22.5t-3 32.5z" />
<glyph unicode="," horiz-adv-x="511" d="M42.5 -274q-0.5 6 3.5 14l133 275v128q0 27 5.5 43t17.5 24t30 11t44 3q25 0 43 -3t29.5 -11t17 -24t5.5 -43q0 -31 -3 -57t-10 -49t-18.5 -45.5t-28.5 -47.5l-137 -206q-5 -7 -11.5 -12t-16 -9t-22 -5.5t-31.5 -1.5q-17 0 -28.5 1.5t-16.5 5t-5.5 9.5z" />
<glyph unicode="-" horiz-adv-x="627" d="M69 505q0 38 9 53t27 15h418q8 0 14.5 -3t11 -11.5t7 -21.5t2.5 -32q0 -39 -9 -54t-26 -15h-418q-18 0 -27 15.5t-9 53.5z" />
<glyph unicode="." horiz-adv-x="517" d="M151 106q0 71 23.5 94.5t85.5 23.5q60 0 83 -23t23 -92q0 -71 -23.5 -94.5t-85.5 -23.5q-60 0 -83 23t-23 92z" />
<glyph unicode="/" horiz-adv-x="791" d="M3 -251.5q-2 9.5 4 22.5l605 1659q4 13 10.5 20.5t16 12t24.5 6t36 1.5q25 0 41 -3.5t25 -9.5t11 -16t-3 -23l-605 -1659q-4 -13 -10.5 -20.5t-16.5 -11.5t-24.5 -6t-35.5 -2q-25 0 -41.5 3.5t-25.5 10t-11 16z" />
<glyph unicode="0" horiz-adv-x="1038" d="M72 644q0 148 24 271.5t78 212t142 137t216 48.5q123 0 206.5 -43.5t134.5 -128t72.5 -208t21.5 -283.5q0 -149 -23.5 -272t-78 -211.5t-142.5 -137t-217 -48.5q-122 0 -205.5 43.5t-134.5 128t-72.5 208t-21.5 283.5zM248 656q0 -145 15 -246.5t47.5 -165.5t83 -93 t122.5 -29q56 0 98.5 18t73 51.5t50.5 80.5t32 104t16.5 123.5t4.5 138.5q0 97 -7 174t-20.5 136t-35 101.5t-51.5 70t-68.5 40t-86.5 12.5q-85 0 -138 -40t-83.5 -110t-41.5 -164t-11 -202z" />
<glyph unicode="1" horiz-adv-x="1038" d="M174 1025q0 17 1.5 29t4.5 20t8.5 14t14.5 12l298 191q4 3 10 5t15 4t21 2.5t30 0.5q24 0 40 -2t25 -5.5t12 -9t3 -11.5v-1137h234q8 0 15 -4.5t11.5 -13t7 -21.5t2.5 -31q0 -19 -3 -32t-8 -21t-11.5 -11.5t-13.5 -3.5h-676q-7 0 -13 3.5t-11.5 11.5t-8.5 21t-3 32 q0 18 3 31t7.5 21.5t11 13t14.5 4.5h270v984l-250 -149q-19 -10 -30.5 -12t-18.5 4.5t-9.5 21.5t-2.5 38z" />
<glyph unicode="2" horiz-adv-x="1038" d="M114 75q0 20 1.5 35t6.5 26.5t12.5 23t19.5 24.5l251 266q87 92 139.5 165t81 133t37.5 109t9 92t-14 81.5t-40.5 67.5t-66.5 46t-92 17q-61 0 -109.5 -17t-85 -37t-61 -37t-36.5 -17q-7 0 -12.5 4t-9 13t-5.5 24t-2 36q0 15 1 26t3.5 19t6.5 15t16 17.5t41.5 28.5 t74 35.5t98 29.5t112.5 12q94 0 164.5 -26.5t117 -72.5t69.5 -107t23 -130q0 -62 -11 -123.5t-46.5 -133t-102.5 -159t-178 -201.5l-205 -214h563q8 0 15.5 -4.5t13 -13.5t8 -22.5t2.5 -31.5t-2.5 -32t-7 -23.5t-12 -14t-16.5 -4.5h-715q-14 0 -24.5 3.5t-18 11.5t-11 23 t-3.5 37z" />
<glyph unicode="3" horiz-adv-x="1038" d="M103 160q0 36 7 50t20 14q9 0 35.5 -16t68 -34.5t97 -34.5t123.5 -16q66 0 116 17t84 48t51 73.5t17 92.5q0 55 -21.5 99t-63 76t-102 49t-137.5 17h-123q-8 0 -15.5 3.5t-13 11.5t-9 21t-3.5 34q0 19 3 31.5t8.5 20t12.5 11t16 3.5h113q66 0 118.5 17t89 49t56 76.5 t19.5 99.5q0 40 -13 76.5t-39 63.5t-66.5 42.5t-93.5 15.5q-58 0 -106.5 -17.5t-86.5 -37.5t-63 -37.5t-35 -17.5q-7 0 -12.5 2.5t-9 10t-5 21t-1.5 35.5q0 15 1 26.5t4 20t7 15.5t13.5 16.5t38.5 27.5t71.5 35.5t98 29.5t119.5 12q90 0 158 -23t113.5 -65t68 -100.5 t22.5 -129.5q0 -61 -16 -113.5t-47 -93t-76 -69t-104 -39.5v-2q67 -7 122.5 -33.5t95.5 -66.5t62.5 -93.5t22.5 -114.5q0 -89 -31 -160.5t-89 -122.5t-143 -78.5t-192 -27.5q-65 0 -121.5 10.5t-100.5 25t-73 30t-36.5 22.5t-11.5 14t-7 17t-4.5 24.5t-1.5 35.5z" />
<glyph unicode="4" horiz-adv-x="1038" d="M48 373q0 19 1 34t4 27.5t8 24t12 24.5l466 786q5 8 14.5 14t24.5 10t37 5.5t52 1.5q33 0 57.5 -2.5t39.5 -6.5t23 -10.5t8 -15.5v-826h146q17 0 27.5 -17.5t10.5 -53.5q0 -33 -10 -52t-28 -19h-146v-272q0 -8 -4 -13.5t-14 -9.5t-26 -6t-41 -2q-24 0 -40 2t-25.5 6 t-13 9.5t-3.5 13.5v272h-534q-12 0 -20 3t-14.5 11t-9 23t-2.5 39zM205 439h423v710h-2z" />
<glyph unicode="5" horiz-adv-x="1038" d="M101 134q0 17 1.5 30.5t5.5 22t9.5 12.5t12.5 4q10 0 31 -12.5t56.5 -27t88 -27.5t124.5 -13q67 0 123 16t96.5 50t63.5 85.5t23 125.5q0 62 -19.5 109.5t-60 79t-102.5 47t-148 15.5q-61 0 -105 -6t-82 -6q-28 0 -40 13t-12 50v527q0 33 15.5 49t44.5 16h573 q8 0 15.5 -4.5t12.5 -13.5t7.5 -23t2.5 -33q0 -36 -10 -56t-28 -20h-483v-363q35 5 71.5 6t84.5 1q111 0 194 -26.5t138.5 -75t84 -117.5t28.5 -153q0 -104 -35 -185t-99 -136.5t-152.5 -84.5t-196.5 -29q-60 0 -114 8.5t-96 21t-69 24.5t-34.5 19t-10.5 13t-5.5 14.5 t-3.5 21.5t-1 31z" />
<glyph unicode="6" horiz-adv-x="1038" d="M107 599q0 83 9 168t32 164t62.5 148.5t99 121t142.5 81.5t193 30q37 0 75 -4.5t70 -12t54 -16.5t29 -14.5t10.5 -12t5.5 -14t3 -17t1 -23.5q0 -18 -0.5 -31t-4 -21t-9 -12t-14.5 -4q-11 0 -30 7t-46 15.5t-65.5 15.5t-89.5 7q-93 0 -160 -38t-109.5 -102t-63 -148.5 t-23.5 -176.5q26 15 58.5 30t71 27t81.5 19.5t92 7.5q105 0 177 -28.5t116.5 -79t63.5 -119t19 -148.5q0 -85 -26 -164.5t-80 -140t-137 -97t-196 -36.5q-81 0 -143 20t-108 57t-76.5 91t-49 123t-26.5 151t-8 176zM281 573q0 -129 16.5 -216t48 -139.5t78.5 -75t110 -22.5 q64 0 111 24t78 64.5t45.5 91t14.5 103.5q0 58 -11.5 105.5t-38.5 80.5t-72 51t-111 18q-37 0 -74 -6.5t-71.5 -18t-66 -27t-57.5 -33.5z" />
<glyph unicode="7" horiz-adv-x="1038" d="M99 1219q0 19 2.5 33t7.5 23.5t12 14t16 4.5h754q14 0 24.5 -3t16 -12t8.5 -23t3 -36q0 -18 -1.5 -32.5t-4 -28t-7 -26t-10.5 -26.5l-466 -1074q-5 -12 -12.5 -19.5t-19 -12t-29.5 -6t-44 -1.5q-34 0 -53 3t-27.5 9.5t-7.5 16t7 22.5l490 1098h-621q-19 0 -28.5 20 t-9.5 56z" />
<glyph unicode="8" horiz-adv-x="1038" d="M82 302q0 61 20 112t57.5 94t92.5 80.5t124 71.5q-60 31 -106 65.5t-78 75t-48.5 86.5t-16.5 100q0 68 24.5 127.5t74 103.5t126 69.5t178.5 25.5q98 0 169.5 -23.5t118 -64t68.5 -95.5t22 -118q0 -51 -16.5 -98t-48.5 -89t-78.5 -78.5t-106.5 -68.5q71 -35 126.5 -72 t93 -79.5t57 -90t19.5 -104.5q0 -84 -30 -149.5t-86.5 -110.5t-139.5 -68t-190 -23q-100 0 -179 21t-134 62t-84 101t-29 137zM256 318q0 -97 66.5 -150t198.5 -53q128 0 193.5 53.5t65.5 145.5q0 46 -17 83.5t-51.5 70t-86 63t-119.5 63.5q-63 -31 -110.5 -62t-78 -64 t-46 -69.5t-15.5 -80.5zM298 996q0 -39 13.5 -72.5t42 -63.5t72 -58.5t103.5 -59.5q101 52 155 115t54 139q0 42 -14.5 76t-42.5 58t-69.5 36.5t-94.5 12.5q-108 0 -163.5 -49t-55.5 -134z" />
<glyph unicode="9" horiz-adv-x="1038" d="M82 884q0 86 25 163.5t78 136.5t135 94t196 35q81 0 143.5 -20.5t108.5 -59t78 -93t51.5 -123.5t28 -149.5t8.5 -169.5q0 -84 -10 -170t-34 -165.5t-64.5 -149t-102 -121.5t-146 -81.5t-196.5 -29.5q-43 0 -83.5 5.5t-73 13.5t-54.5 17t-32 18t-14.5 24.5t-4.5 41.5 q0 22 1.5 35t4.5 20t8.5 9.5t13.5 2.5q11 0 31 -7.5t50.5 -16.5t71.5 -16.5t92 -7.5q97 0 166.5 37.5t113.5 100.5t66 146t24 175q-53 -31 -127 -55t-170 -24q-108 0 -181.5 29.5t-118 80.5t-64 121t-19.5 153zM256 897q0 -59 12.5 -108t40.5 -83t73 -52.5t111 -18.5 q75 0 145 22.5t121 59.5q0 128 -17 215.5t-50 141.5t-81 78t-111 24q-65 0 -111 -23.5t-75.5 -63t-43.5 -89.5t-14 -103z" />
<glyph unicode=":" horiz-adv-x="548" d="M187 106q0 33 4.5 55.5t16.5 35.5t32 19t52 6q31 0 51 -6t32.5 -19t17 -35.5t4.5 -55.5t-4.5 -55t-17 -35.5t-32.5 -19t-51 -5.5q-32 0 -52 5.5t-32 19t-16.5 35.5t-4.5 55zM187 800q0 34 4.5 56.5t16.5 36t32 19t52 5.5q31 0 51 -5.5t32.5 -19t17 -36t4.5 -56.5 q0 -32 -4.5 -54t-17 -35.5t-32.5 -19t-51 -5.5q-32 0 -52 5.5t-32 19t-16.5 35.5t-4.5 54z" />
<glyph unicode=";" horiz-adv-x="548" d="M72.5 -272.5q-0.5 5.5 3.5 14.5l131 273v128q0 27 6 43t17.5 24t29.5 11t43 3q24 0 42 -3t29.5 -11t17 -24t5.5 -43q0 -31 -3 -57t-9.5 -49t-18 -45.5t-28.5 -47.5l-136 -204q-5 -8 -11.5 -13t-15.5 -8.5t-21.5 -5.5t-30.5 -2q-17 0 -28.5 1.5t-16.5 5.5t-5.5 9.5z M187 800q0 34 4.5 56.5t16.5 36t32 19t52 5.5q31 0 51 -5.5t32.5 -19t17 -36t4.5 -56.5q0 -32 -4.5 -54t-17 -35.5t-32.5 -19t-51 -5.5q-32 0 -52 5.5t-32 19t-16.5 35.5t-4.5 54z" />
<glyph unicode="&#x3c;" d="M69 578q0 16 1.5 30t5 23t8 15.5t10.5 8.5l785 396q23 11 31.5 -1t8.5 -59q0 -29 -1.5 -46t-5 -27.5t-10 -16t-18.5 -11.5l-644 -315l640 -310q13 -7 20.5 -12.5t11.5 -16t5.5 -28t1.5 -46.5q0 -25 -2 -40.5t-7 -22t-12.5 -5.5t-18.5 7l-788 398q-10 5 -16 24t-6 55z" />
<glyph unicode="=" d="M94 382q0 37 10 54t27 17h756q18 0 28 -17t10 -54q0 -40 -11.5 -55t-26.5 -15h-756q-15 0 -26 15t-11 55zM94 771q0 36 10 53t27 17h756q18 0 28 -17t10 -53q0 -40 -11.5 -55.5t-26.5 -15.5h-756q-15 0 -26 15.5t-11 55.5z" />
<glyph unicode="&#x3e;" d="M101 160q0 28 1 45t4.5 27.5t10.5 16.5t18 11l645 317l-641 309q-13 6 -20.5 11.5t-11.5 16.5t-5 28.5t-1 46.5q0 26 2 40.5t6.5 21t12.5 5.5t19 -7l788 -397q10 -5 16.5 -24.5t6.5 -53.5q0 -17 -2 -30.5t-5 -23.5t-8 -15.5t-11 -8.5l-785 -396q-11 -5 -19 -5.5 t-12.5 6.5t-6.5 21.5t-2 37.5z" />
<glyph unicode="?" horiz-adv-x="949" d="M133 1231q0 24 3 36.5t13 22t38.5 25t69 28.5t89 22t100.5 9q107 0 184 -30.5t127 -82.5t74 -122t24 -148q0 -88 -25 -156t-70 -116t-108 -75t-140 -32l-7 -241q0 -15 -17.5 -22.5t-56.5 -7.5q-21 0 -36 1.5t-24 5t-13 9.5t-4 14l-6 277q-1 23 3.5 37.5t13.5 24t23 13 t32 3.5h22q65 0 111 20.5t74.5 54.5t41.5 80t13 96q0 57 -16 104.5t-48 82t-80.5 53.5t-114.5 19q-58 0 -101.5 -12.5t-75.5 -27.5t-52.5 -27t-30.5 -12q-7 0 -12.5 3t-9.5 11.5t-6 23t-2 36.5zM329 104q0 33 4.5 55.5t17 35t32.5 18t52 5.5q30 0 50.5 -5.5t32.5 -18 t16.5 -35t4.5 -55.5t-4.5 -54.5t-16.5 -35t-32.5 -19t-50.5 -5.5q-32 0 -52 5.5t-32.5 19t-17 35t-4.5 54.5z" />
<glyph unicode="@" horiz-adv-x="1831" d="M0 1294zM170 381q0 52 5.5 119.5t21 144t43.5 156t72.5 155.5t108 143.5t150 118t198 79.5t252.5 29q164 0 283.5 -39.5t197.5 -111.5t116 -175.5t38 -230.5q0 -68 -8.5 -139t-27.5 -138t-50 -126.5t-76 -104.5t-104.5 -70.5t-136.5 -25.5q-41 0 -76 9.5t-62 27.5 t-45.5 46.5t-25.5 65.5q-40 -40 -77.5 -68.5t-73.5 -46.5t-70.5 -26t-67.5 -8q-43 0 -76 8.5t-58.5 25t-43.5 40.5t-30 54t-17 66t-5 78q0 43 7 98.5t23 114.5t44 115.5t69.5 101t98.5 72t133 27.5q32 0 61.5 -7.5t56.5 -23.5t52 -40t51 -57l17 88q4 14 18 21t52 7 q18 0 30.5 -2t19.5 -5.5t9.5 -8.5t0.5 -12l-89 -460q-16 -87 8 -128.5t91 -41.5q41 0 74 20.5t58 55.5t42 81.5t28 98t16 105.5t5 104q0 87 -23.5 165.5t-80.5 138t-152.5 95t-239.5 35.5q-118 0 -210 -26t-162 -70.5t-120 -102.5t-84.5 -123.5t-55.5 -134t-32 -132 t-14.5 -119.5t-3.5 -95q0 -111 25.5 -203t88.5 -159t169 -104t267 -37q73 0 132 8.5t102.5 18t70.5 18t37 8.5q6 0 10.5 -3.5t7 -11t3.5 -19t1 -28.5q0 -14 -0.5 -23t-2.5 -16.5t-5.5 -13.5t-9.5 -11t-34.5 -15t-77 -20t-113.5 -17t-143 -7q-187 0 -316.5 44t-211 126 t-117.5 197t-36 257zM681 450q0 -74 26.5 -114t89.5 -40q24 0 49 8.5t53 26t59.5 46t69.5 67.5l48 260q-38 64 -78 98t-91 34q-42 0 -76 -20.5t-59 -53t-42.5 -73.5t-28.5 -84t-15.5 -83.5t-4.5 -71.5z" />
<glyph unicode="A" horiz-adv-x="1185" d="M44 62l434 1202q4 11 10.5 18t19 11t32 5.5t49.5 1.5q32 0 53 -1.5t34 -5.5t20 -11.5t11 -18.5l434 -1202q9 -21 9 -35v-2q0 -12 -8 -19t-26.5 -9t-49.5 -2t-49.5 1.5t-28 5t-14 9.5t-8.5 15l-111 315h-538l-106 -311q-3 -9 -8 -15.5t-14.5 -11t-27 -6.5t-45.5 -2 q-29 0 -47.5 2.5t-26.5 9.5q-7 7 -7 19q0 14 9 37zM360 477h450l-226 645h-1z" />
<glyph unicode="B" horiz-adv-x="1114" d="M172 70v1154q0 39 20.5 54.5t43.5 15.5h294q116 0 190 -22t123.5 -64t74.5 -103t25 -138q0 -46 -11 -88t-32.5 -77.5t-54 -63.5t-74.5 -46q53 -10 99 -36.5t80.5 -67.5t54.5 -96t20 -121q0 -61 -15.5 -112.5t-43.5 -92.5t-67.5 -72t-89 -52t-106 -31.5t-129.5 -10.5h-338 q-23 0 -43.5 15.5t-20.5 54.5zM342 142h250q59 0 103 14t77.5 41.5t52.5 68.5t19 95q0 58 -18.5 102t-54 74t-89 45.5t-134.5 15.5h-206v-456zM342 735h196q67 0 108 17.5t68 47t39.5 69t12.5 81.5q0 47 -13 85t-41 64.5t-73 40.5t-119 14h-178v-419z" />
<glyph unicode="C" horiz-adv-x="1092" d="M97 630q0 161 41.5 287t116.5 213.5t179.5 133.5t231.5 46q56 0 109 -10.5t98 -26.5t80 -37t48.5 -34.5t17.5 -20.5t6.5 -16.5t4 -22.5t1.5 -31q0 -20 -2 -34t-6 -23.5t-9.5 -14t-13.5 -4.5q-14 0 -39 19.5t-64.5 43t-96 43t-135.5 19.5q-86 0 -156.5 -34.5 t-120.5 -101.5t-77.5 -163.5t-27.5 -220.5q0 -123 26.5 -217.5t76 -158t121.5 -96t163 -32.5q77 0 134.5 19t98 42.5t66.5 42.5t41 19q7 0 12 -3t8 -11.5t4.5 -23.5t1.5 -38q0 -16 -1 -28t-3.5 -21t-6.5 -16t-14 -17t-42 -30.5t-79.5 -40t-109 -33t-134.5 -13.5 q-126 0 -227.5 42t-173 124t-110 202.5t-38.5 277.5z" />
<glyph unicode="D" horiz-adv-x="1260" d="M172 70v1154q0 39 20.5 54.5t43.5 15.5h293q168 0 284 -43.5t194.5 -125t119 -197.5t40.5 -262q0 -168 -43 -293.5t-125.5 -208t-202.5 -123.5t-286 -41h-274q-23 0 -43.5 15.5t-20.5 54.5zM344 144h177q124 0 209 31t142 95t85.5 160.5t28.5 228.5q0 105 -26 195.5 t-81.5 156.5t-140.5 103t-219 37h-175v-1007z" />
<glyph unicode="E" horiz-adv-x="1000" d="M172 70v1154q0 39 20.5 54.5t43.5 15.5h614q8 0 14.5 -4t10.5 -13t6.5 -22.5t2.5 -33.5q0 -18 -2.5 -31.5t-6.5 -22t-10.5 -12.5t-14.5 -4h-506v-406h434q8 0 14.5 -4.5t11 -12.5t6.5 -22t2 -33q0 -18 -2 -31t-6.5 -21t-11 -11.5t-14.5 -3.5h-434v-463h513q8 0 14.5 -4 t11.5 -12.5t7 -22t2 -33.5q0 -18 -2 -31.5t-7 -22.5t-11.5 -13t-14.5 -4h-621q-23 0 -43.5 15.5t-20.5 54.5z" />
<glyph unicode="F" horiz-adv-x="941" d="M172 26v1198q0 39 20.5 54.5t43.5 15.5h582q7 0 13.5 -4t11.5 -13t7 -23.5t2 -33.5t-2 -33t-7 -22.5t-11.5 -12.5t-13.5 -4h-474v-440h448q7 0 13.5 -3.5t11.5 -11.5t7 -21.5t2 -34.5q0 -19 -2 -32.5t-7 -22t-11.5 -13t-13.5 -4.5h-448v-539q0 -7 -4 -13.5t-14 -10 t-26 -6t-42 -2.5q-24 0 -41 2.5t-27 6t-14 10t-4 13.5z" />
<glyph unicode="G" horiz-adv-x="1292" d="M91 635q0 154 46.5 279t131 213t203 136.5t262.5 48.5q74 0 139 -13t115.5 -30.5t85 -38t47.5 -33.5t18 -30t5 -49q0 -19 -2 -33.5t-6 -24t-10 -13.5t-13 -4q-12 0 -40 19t-75 42t-112.5 42t-155.5 19q-107 0 -192 -39t-144 -108t-90.5 -164t-31.5 -206q0 -124 34.5 -220 t95.5 -162t145.5 -100t185.5 -34q60 0 121.5 14.5t114.5 43.5v377h-300q-17 0 -25.5 17t-8.5 53q0 19 2 32.5t6.5 22t10.5 12.5t15 4h411q11 0 22 -4t20 -12t14 -22t5 -32v-493q0 -26 -9 -45t-38 -33.5t-75 -31.5t-95 -29t-99 -18t-99 -6q-150 0 -268 46.5t-199.5 132.5 t-124.5 206t-43 268z" />
<glyph unicode="H" horiz-adv-x="1276" d="M172 26v1242q0 8 4 14t14 9.5t27 6t41 2.5q25 0 41.5 -2.5t26.5 -6t14 -9.5t4 -14v-518h589v518q0 8 4 14t14 9.5t26 6t42 2.5q24 0 40.5 -2.5t26.5 -6t14 -9.5t4 -14v-1242q0 -8 -4 -14t-14 -9.5t-26.5 -6t-40.5 -2.5q-26 0 -42 2.5t-26 6t-14 9.5t-4 14v574h-589v-574 q0 -8 -4 -14t-14 -9.5t-26.5 -6t-41.5 -2.5q-24 0 -41 2.5t-27 6t-14 9.5t-4 14z" />
<glyph unicode="I" horiz-adv-x="516" d="M172 26v1242q0 8 4.5 14t15 9.5t27 6t39.5 2.5q25 0 41.5 -2.5t26.5 -6t14 -9.5t4 -14v-1242q0 -8 -4 -14t-14 -9.5t-26.5 -6t-41.5 -2.5q-24 0 -41 2.5t-27 6t-14 9.5t-4 14z" />
<glyph unicode="J" horiz-adv-x="653" d="M7 107q0 22 1.5 36.5t5.5 23t9.5 12t13.5 3.5t20.5 -7.5t30 -16.5t40.5 -16.5t54 -7.5q34 0 58 8.5t40 31.5t24 63.5t8 105.5v926q0 7 4 13t14 10t26.5 6t41.5 2q24 0 41 -2t26.5 -6t14 -10t4.5 -13v-943q0 -77 -14 -141t-48 -109t-89.5 -69.5t-137.5 -24.5 q-28 0 -55.5 4.5t-50.5 12t-40 16t-22.5 14.5t-9 12t-6 14.5t-3.5 21t-1 30.5z" />
<glyph unicode="K" horiz-adv-x="1064" d="M172 26v1242q0 8 4 14t14 9.5t27 6t41 2.5q25 0 41.5 -2.5t26.5 -6t14 -9.5t4 -14v-575l458 575q6 9 14 15t19.5 9.5t28 5.5t42.5 2t42 -2.5t25.5 -6.5t13 -10t3.5 -13q0 -13 -6.5 -26t-24.5 -36l-429 -513l462 -614q17 -26 20.5 -35.5t3.5 -15.5q0 -8 -3.5 -14.5 t-13.5 -10.5t-27 -6.5t-44 -2.5q-35 0 -57 3t-33 11t-18 18l-476 647v-647q0 -7 -4 -13.5t-14 -10t-26.5 -6t-41.5 -2.5q-24 0 -41 2.5t-27 6t-14 10t-4 13.5z" />
<glyph unicode="L" horiz-adv-x="861" d="M172 70v1198q0 8 4 14t14 9.5t27 6t41 2.5q25 0 41.5 -2.5t26.5 -6t14 -9.5t4 -14v-1119h464q9 0 15.5 -4.5t11 -13t6.5 -22.5t2 -34t-2 -33.5t-6.5 -23t-11 -14t-15.5 -4.5h-572q-23 0 -43.5 15.5t-20.5 54.5z" />
<glyph unicode="M" horiz-adv-x="1751" d="M172 26v1190q0 42 22 60t49 18h104q32 0 56 -6t42 -19t30 -33t21 -47l375 -937h5l390 934q11 30 24 51t28.5 33.5t34.5 18t44 5.5h109q15 0 28.5 -4.5t23 -14t15.5 -24t6 -35.5v-1190q0 -8 -4 -14t-14 -9.5t-25.5 -6t-40.5 -2.5q-23 0 -39.5 2.5t-26 6t-13.5 9.5t-4 14 v1127h-2l-461 -1132q-3 -7 -8.5 -12t-16 -8.5t-25 -5t-34.5 -1.5q-21 0 -36 2t-25 5.5t-15.5 8.5t-7.5 11l-441 1132h-1v-1127q0 -8 -4 -14t-14 -9.5t-26 -6t-41 -2.5q-24 0 -40 2.5t-25.5 6t-13 9.5t-3.5 14z" />
<glyph unicode="N" horiz-adv-x="1322" d="M172 26v1194q0 40 22 57t48 17h82q29 0 48.5 -5t35 -16.5t30 -32t31.5 -51.5l314 -568q29 -52 56 -101.5t52 -97.5t49.5 -94.5t48.5 -93.5h1q-2 79 -2.5 164.5t-0.5 164.5v702q0 7 4 13t13.5 10.5t25 6.5t40.5 2q22 0 38 -2t25 -6.5t13 -10.5t4 -13v-1194q0 -20 -6.5 -34 t-17 -23t-23.5 -13t-26 -4h-55q-26 0 -45.5 5.5t-37 20t-35 39.5t-38.5 64l-408 736q-32 57 -64.5 119.5t-60.5 121.5h-2q2 -72 3 -147t1 -149v-781q0 -7 -4 -13.5t-13.5 -10t-25 -6t-39.5 -2.5t-39.5 2.5t-24.5 6t-13 10t-4 13.5z" />
<glyph unicode="O" horiz-adv-x="1356" d="M99 640q0 153 37 278t111 212.5t185 135t259 47.5q143 0 249 -43t176.5 -125.5t105 -204t34.5 -278.5t-37 -283t-110.5 -214.5t-184.5 -136t-259 -47.5q-146 0 -252.5 43.5t-176 126.5t-103.5 206t-34 283zM281 652q0 -114 19 -210t64 -165.5t120.5 -108t189.5 -38.5 q113 0 190 42t124 113.5t67 165.5t20 199q0 110 -19.5 204.5t-65 164t-121.5 108.5t-188 39t-188 -42t-123.5 -112t-68 -163.5t-20.5 -196.5z" />
<glyph unicode="P" horiz-adv-x="1058" d="M172 26v1194q0 40 21 57t47 17h277q42 0 80.5 -3.5t91 -15t107 -43t92.5 -77.5t58.5 -106.5t20.5 -133.5q0 -97 -32 -175t-91.5 -133t-146 -85t-206.5 -30h-147v-466q0 -8 -4.5 -14t-14 -9.5t-26 -6t-41.5 -2.5t-41.5 2.5t-26.5 6t-14 9.5t-4 14zM344 633h155 q78 0 129.5 20t86.5 55.5t53 85t18 107.5q0 79 -29.5 132t-73 79t-90 33t-90.5 7h-159v-519z" />
<glyph unicode="Q" horiz-adv-x="1378" d="M99 640q0 154 37 278.5t111 212t185 135t259 47.5q139 0 244.5 -43t177 -125.5t107.5 -203.5t36 -278q0 -81 -9.5 -155t-30 -140t-51.5 -122t-73 -101q73 -60 128 -93.5t91 -50.5t56 -24.5t30 -17t14 -27t4 -46.5q0 -23 -2.5 -38.5t-7.5 -24t-11 -11.5t-12 -3 q-20 0 -64.5 16.5t-102.5 48t-124 76.5t-128 105q-49 -30 -124 -52t-174 -22q-146 0 -252.5 43t-176 126t-103.5 206.5t-34 283.5zM281 652q0 -114 19 -209.5t64 -165.5t120.5 -108.5t189.5 -38.5q113 0 190 42t124 113.5t67 166t20 199.5q0 110 -19.5 204t-65 163.5 t-121.5 108.5t-188 39t-188 -41.5t-123.5 -112t-68 -163.5t-20.5 -197z" />
<glyph unicode="R" horiz-adv-x="1112" d="M172 26v1198q0 39 20.5 54.5t43.5 15.5h275q49 0 81.5 -2.5t58.5 -5.5q75 -13 132.5 -41t96.5 -71t58.5 -98.5t19.5 -122.5q0 -65 -17.5 -116.5t-50.5 -91t-79 -68.5t-103 -49q32 -14 58 -35.5t48.5 -51.5t42.5 -69t40 -88l116 -285q14 -36 18 -50.5t4 -22.5t-3 -14 t-13 -10t-28 -6t-48 -2q-26 0 -42.5 2t-26.5 6.5t-15.5 12.5t-9.5 20l-119 305q-21 52 -43.5 95.5t-53.5 75t-73 49t-101 17.5h-115v-551q0 -8 -4.5 -14t-14 -9.5t-26 -6t-41.5 -2.5t-41.5 2.5t-26.5 6t-14 9.5t-4 14zM344 716h168q68 0 117.5 16.5t82.5 46t48.5 69.5 t15.5 87q0 76 -34 128.5t-114 75.5q-25 7 -56.5 10t-82.5 3h-145v-436z" />
<glyph unicode="S" horiz-adv-x="941" d="M71 161q0 22 2 36.5t6 23.5t10 12.5t14 3.5q14 0 39.5 -17t65.5 -37t96.5 -37.5t130.5 -17.5q56 0 102.5 15t80 42.5t51.5 67.5t18 91q0 55 -25 94t-66 68.5t-93.5 54t-107.5 50t-107 56.5t-93 73t-66.5 98.5t-25.5 135.5q0 81 29.5 144.5t82 106.5t125 65.5t156.5 22.5 q43 0 86.5 -7.5t82 -20t68.5 -28t39.5 -25t12.5 -15t5 -14t3 -20.5t1 -31q0 -18 -1.5 -32t-4.5 -23.5t-8.5 -14t-12.5 -4.5q-11 0 -34.5 14t-57.5 31.5t-80.5 32t-104.5 14.5q-54 0 -94 -14.5t-66 -38.5t-39 -57t-13 -70q0 -54 25 -93t66.5 -69t94.5 -55t108 -50.5t108 -56 t94.5 -72t67 -98t25.5 -133.5q0 -91 -33.5 -162t-93 -120.5t-140 -74.5t-173.5 -25q-65 0 -120.5 11t-99 27t-73 33t-41 29t-17 30.5t-5.5 49.5z" />
<glyph unicode="T" horiz-adv-x="998" d="M15 1220q0 19 2.5 33.5t6.5 23.5t10.5 13t14.5 4h900q8 0 14.5 -4t11 -13t6.5 -23.5t2 -33.5t-2 -33t-6.5 -22.5t-11 -12.5t-14.5 -4h-364v-1122q0 -8 -4 -14t-14 -9.5t-26.5 -6t-41.5 -2.5q-24 0 -41 2.5t-27 6t-14 9.5t-4 14v1122h-364q-8 0 -14.5 4t-10.5 12.5 t-6.5 22.5t-2.5 33z" />
<glyph unicode="U" horiz-adv-x="1314" d="M170 465v803q0 8 4 14t14 9.5t26 6t42 2.5q24 0 41 -2.5t26.5 -6t13.5 -9.5t4 -14v-782q0 -90 22 -157t63.5 -111.5t100 -67t131.5 -22.5q75 0 133.5 22t99 66t62 109t21.5 152v791q0 8 4 14t14 9.5t26.5 6t41.5 2.5q24 0 40.5 -2.5t26 -6t14 -9.5t4.5 -14v-790 q0 -118 -34.5 -210.5t-98.5 -156.5t-156 -97t-209 -33q-107 0 -195 31t-151 91.5t-97 151.5t-34 210z" />
<glyph unicode="V" horiz-adv-x="1162" d="M34 1270q0 12 9 19t29 9t54 2q28 0 44.5 -1.5t25.5 -5.5t13.5 -10.5t8.5 -16.5l371 -1089h1l361 1087q3 11 7 18t14 11t28 5.5t48 1.5q31 0 49 -2q19 -3 25 -10q5 -6 5 -16q-1 -2 -1 -4q-2 -14 -9 -36l-422 -1202q-4 -11 -11 -18t-19.5 -11t-32 -5.5t-48.5 -1.5 q-22 0 -38.5 0.5t-28.5 2.5t-20.5 4.5t-14.5 6.5t-9.5 9.5t-6.5 13.5l-423 1202q-9 24 -9 37z" />
<glyph unicode="W" horiz-adv-x="1822" d="M61 1270q1 12 9 19t27 9t51 2q31 0 49 -1.5t27.5 -5.5t13 -11t5.5 -18l291 -1084h1l276 1082q3 11 7.5 18.5t14.5 11.5t28.5 6t48.5 2q28 0 44.5 -2t26.5 -6t14.5 -11.5t7.5 -18.5l297 -1082h2l285 1083q3 10 6 17.5t12.5 11.5t27 6t46.5 2q30 0 47.5 -2.5t25.5 -9.5 t8 -18v-2q0 -13 -6 -36l-343 -1194q-4 -14 -12 -22.5t-22 -13t-34.5 -6.5t-50.5 -2q-31 0 -52.5 2t-35.5 6.5t-21 13t-11 22.5l-271 977h-2l-250 -977q-3 -14 -10 -22.5t-20 -13t-33.5 -6.5t-52.5 -2q-33 0 -55 2t-36 6.5t-21.5 13t-10.5 22.5l-342 1195q-7 25 -7 37z" />
<glyph unicode="X" horiz-adv-x="1063" d="M50 27q2 13 16 35l353 595l-337 575q-12 22 -15.5 35.5t4.5 21t28 9.5t55 2q30 0 49 -1.5t30 -5t16 -10t11 -14.5l278 -484l276 484q5 8 10 14.5t14.5 10t26.5 5t46 1.5q31 0 50.5 -2.5t28 -9.5t6.5 -20.5t-14 -35.5l-336 -571l350 -599q14 -22 16 -35q1 -3 0 -5 q0 -10 -7 -16q-9 -8 -29.5 -10t-54.5 -2q-32 0 -50 1.5t-28.5 5.5t-16 9.5t-9.5 14.5l-288 515l-291 -515q-5 -9 -11 -15t-16.5 -9.5t-28.5 -5t-48 -1.5q-33 0 -52 2q-18 2 -26 10q-6 6 -6 15q-1 3 0 6z" />
<glyph unicode="Y" horiz-adv-x="998" d="M32 1269v6q0 9 6 14q7 7 26.5 9t52.5 2q30 0 48.5 -2t29.5 -5.5t16.5 -10t10.5 -16.5l179 -372q25 -53 50 -111t51 -117h2q23 57 47.5 113.5t49.5 111.5l180 374q3 10 8.5 17t15 10.5t26.5 5.5t43 2q36 0 56.5 -2.5t28.5 -9.5q6 -5 6 -14q0 -3 -1 -6q-2 -13 -13 -35 l-366 -730v-477q0 -8 -4 -14t-14 -9.5t-27 -6t-41 -2.5q-25 0 -41.5 2.5t-27 6t-14.5 9.5t-4 14v477l-366 730q-11 23 -14 36z" />
<glyph unicode="Z" horiz-adv-x="959" d="M59 67v37q0 13 1.5 24t6.5 23.5t14 28t22 36.5l597 934h-590q-10 0 -17 4t-11.5 12.5t-6.5 22t-2 31.5q0 20 2 34t6.5 23t11.5 13t17 4h720q27 0 42.5 -15.5t15.5 -47.5v-39q0 -16 -2 -28.5t-7 -25.5t-13.5 -28t-22.5 -35l-594 -930h632q17 0 26 -17t9 -56 q0 -19 -2 -32.5t-6.5 -22.5t-11 -13t-15.5 -4h-764q-26 0 -42 16t-16 51z" />
<glyph unicode="[" horiz-adv-x="628" d="M191 -250v1579q0 19 5.5 32.5t14.5 22t20 12t23 3.5h256q6 0 11.5 -3t9.5 -11t6 -19.5t2 -28.5q0 -32 -7.5 -46t-21.5 -14h-163v-1476h163q6 0 11.5 -3t9.5 -10.5t6 -19t2 -28.5q0 -33 -7.5 -46.5t-21.5 -13.5h-256q-12 0 -23 3.5t-20 11.5t-14.5 21.5t-5.5 33.5z" />
<glyph unicode="\" horiz-adv-x="791" d="M11 1440q0 10 8 15t24.5 6.5t43.5 1.5q26 0 42 -1t26 -4.5t14.5 -8.5t7.5 -13l606 -1659q6 -17 6 -27t-8 -15t-24.5 -7t-43.5 -2q-26 0 -42 1.5t-25.5 4t-14.5 8.5t-8 14l-605 1659q-7 17 -7 27z" />
<glyph unicode="]" horiz-adv-x="628" d="M90 -260q0 17 1.5 28.5t5.5 19t9.5 10.5t12.5 3h163v1476h-163q-14 0 -21.5 14t-7.5 46q0 17 1.5 28.5t5.5 19.5t9.5 11t12.5 3h255q12 0 23.5 -3.5t20.5 -12t14.5 -22t5.5 -32.5v-1579q0 -20 -5.5 -33.5t-14.5 -21.5t-20.5 -11.5t-23.5 -3.5h-255q-14 0 -21.5 13.5 t-7.5 46.5z" />
<glyph unicode="^" d="M106.5 594q0.5 11 8.5 30l284 648q3 9 11 15.5t20.5 10.5t30.5 6t42 2q26 0 44 -2t30 -6t20 -10.5t12 -15.5l291 -648q8 -19 9 -30.5t-7 -17.5t-25.5 -7.5t-46.5 -1.5q-26 0 -43.5 1.5t-28.5 5.5t-16.5 10t-9.5 14l-232 551l-3 -3l-219 -548q-3 -8 -8.5 -14t-16.5 -10 t-27.5 -5.5t-42.5 -1.5q-29 0 -45.5 1.5t-24 8t-7 17.5z" />
<glyph unicode="_" d="M-7 -300q0 34 9 51t26 17h963q16 0 24.5 -16t8.5 -50q0 -35 -8 -51t-25 -16h-963q-17 0 -26 15t-9 50z" />
<glyph unicode="`" horiz-adv-x="596" d="M0 951zM132 1373.5q-1 8.5 6 15t24.5 10t45.5 3.5q24 0 40.5 -2t27.5 -6t19 -11t16 -18l144 -231q7 -11 9 -19t-3.5 -13t-18 -8t-34.5 -3q-20 0 -33 1.5t-22.5 5t-16.5 9.5t-14 16l-181 233q-8 9 -9 17.5z" />
<glyph unicode="a" horiz-adv-x="981" d="M92 255q0 76 31 132t89 93t142 55.5t189 18.5h124v70q0 52 -11 92t-35.5 66.5t-63.5 40t-96 13.5q-61 0 -109.5 -14.5t-85 -32t-61 -32t-36.5 -14.5q-8 0 -14 4t-10.5 12t-6.5 20.5t-2 27.5q0 25 3.5 39.5t17 27.5t46.5 30.5t76 32t94 24t103 9.5q97 0 165 -22t110 -64.5 t61 -105.5t19 -147v-607q0 -12 -8 -18t-22 -9t-41 -3q-26 0 -41.5 3t-22.5 9t-7 18v90q-59 -63 -131.5 -98t-153.5 -35q-71 0 -128.5 18.5t-98 53.5t-63 86t-22.5 116zM261 263q0 -70 44.5 -111.5t124.5 -41.5q65 0 120.5 33t116.5 101v191h-141q-68 0 -118 -11.5t-83 -34 t-48.5 -54t-15.5 -72.5z" />
<glyph unicode="b" horiz-adv-x="1076" d="M153 25v1336q0 8 3.5 14t13 10t25.5 6t40 2q25 0 41 -2t25 -6t13 -10t4 -14v-539q40 41 77.5 69t73.5 45.5t72 25.5t76 8q98 0 167.5 -39t113 -104.5t63.5 -153.5t20 -186q0 -117 -25.5 -210.5t-75 -159.5t-121.5 -101t-165 -35q-43 0 -79.5 8.5t-71.5 27.5t-70 48 t-74 70v-110q0 -8 -4 -14t-13 -9.5t-22.5 -5.5t-34.5 -2q-20 0 -34 2t-23 5.5t-12 9.5t-3 14zM318 293q68 -83 130 -126.5t129 -43.5q62 0 106 30t71.5 79.5t40 111t12.5 124.5q0 69 -10.5 134t-36.5 115t-69 80.5t-107 30.5q-32 0 -63 -9t-63 -30t-66.5 -54t-73.5 -83v-359 z" />
<glyph unicode="c" horiz-adv-x="866" d="M90 464q0 133 32.5 228.5t89 156.5t133 90.5t165.5 29.5q43 0 83.5 -8t74.5 -21t60.5 -30t38.5 -29t16.5 -19t7.5 -16.5t4 -21.5t1 -30q0 -39 -9 -54.5t-22 -15.5q-15 0 -34.5 16.5t-49.5 36.5t-72.5 36.5t-100.5 16.5q-119 0 -182.5 -91.5t-63.5 -265.5 q0 -87 16.5 -152.5t48.5 -109.5t78.5 -65.5t106.5 -21.5q57 0 100 18t74.5 39.5t53 39t33.5 17.5q7 0 12 -4t8.5 -13.5t5 -24t1.5 -34.5q0 -17 -1 -29.5t-3.5 -21t-6 -15t-16 -19t-42.5 -31t-67.5 -33t-81.5 -23.5t-91 -9q-97 0 -172 32t-125.5 93.5t-77 151t-26.5 206.5z " />
<glyph unicode="d" horiz-adv-x="1076" d="M96 464q0 116 25 209.5t74 159.5t121.5 101.5t167.5 35.5q79 0 144.5 -34.5t129.5 -101.5v523q0 7 3.5 13.5t13.5 10t25.5 6t39.5 2.5q25 0 41 -2.5t25 -6t13.5 -10t4.5 -13.5v-1332q0 -8 -3.5 -14t-12 -9.5t-22.5 -5.5t-34 -2q-21 0 -35 2t-23 5.5t-13 9.5t-4 14v119 q-71 -77 -147.5 -120t-167.5 -43q-99 0 -169 38.5t-113.5 104t-63.5 154t-20 186.5zM267 482q0 -68 10.5 -133t36.5 -115.5t69 -81t108 -30.5q33 0 63.5 9t62.5 30t67 54.5t74 82.5v360q-67 83 -129.5 126.5t-130.5 43.5q-63 0 -107 -30t-71.5 -79t-40 -111t-12.5 -126z" />
<glyph unicode="e" horiz-adv-x="1019" d="M93 471q0 116 30 208.5t86.5 157t136.5 99t179 34.5q106 0 180.5 -34t122.5 -91.5t70.5 -135t22.5 -165.5v-30q0 -39 -19.5 -55.5t-44.5 -16.5h-590q0 -75 15 -135t50 -103t91 -66t137 -23q64 0 114 10.5t86.5 23.5t60 23.5t35.5 10.5q7 0 12.5 -3.5t8.5 -10.5t4.5 -19.5 t1.5 -30.5q0 -13 -1 -22.5t-2.5 -17t-5 -13.5t-9 -11.5t-32.5 -18t-70 -24.5t-99.5 -21.5t-120.5 -9.5q-111 0 -194.5 31t-140.5 92t-86 153t-29 214zM267 563h488v12q1 121 -57 192q-60 74 -180 74q-61 0 -107 -23t-77 -61t-48 -88.5t-19 -105.5z" />
<glyph unicode="f" horiz-adv-x="625" d="M37 882q0 19 2 32t6 21.5t10 12t14 3.5h127v93q0 94 17.5 161.5t53.5 110.5t90.5 63.5t128.5 20.5q35 0 68 -6.5t51 -14t24 -13.5t10 -15.5t5.5 -23t1.5 -32.5t-2 -30.5t-4.5 -18.5t-6.5 -9.5t-10 -2.5q-7 0 -17.5 4.5t-25.5 10t-35.5 10t-47.5 4.5q-37 0 -63 -12 t-42 -37.5t-23 -66t-7 -98.5v-98h201q8 0 13.5 -3.5t10 -12t7 -21.5t2.5 -32q0 -36 -9 -52t-24 -16h-201v-789q0 -8 -4 -13.5t-13.5 -9.5t-25.5 -6t-40 -2t-40 2t-25.5 6t-13.5 9.5t-4 13.5v789h-127q-16 0 -24 16t-8 52z" />
<glyph unicode="g" horiz-adv-x="964" d="M53 -123q0 33 8 64t24.5 59t41 53.5t56.5 50.5q-49 25 -72.5 63t-23.5 82q0 61 25 109t62 86q-31 37 -49 83.5t-18 112.5q0 77 26 138t72 103t110.5 64.5t140.5 22.5q41 0 76.5 -4.5t66.5 -12.5h272q17 0 25.5 -16.5t8.5 -50.5q0 -35 -9.5 -50.5t-24.5 -15.5h-129 q35 -36 49 -79.5t14 -90.5q0 -78 -25 -138t-71.5 -101.5t-110.5 -63.5t-142 -22q-55 0 -104.5 14.5t-76.5 36.5q-18 -18 -29.5 -41t-11.5 -53q0 -35 32.5 -58t86.5 -25l235 -10q67 -2 123 -18.5t97 -47t64 -75t23 -103.5q0 -62 -26 -118t-79.5 -98.5t-136.5 -67t-196 -24.5 q-109 0 -185.5 18.5t-125.5 50.5t-71 76.5t-22 96.5zM215 -107q0 -65 66 -98.5t184 -33.5q75 0 125.5 14.5t81.5 38.5t44.5 55t13.5 65q0 58 -47.5 89.5t-128.5 33.5l-233 8q-32 -25 -52.5 -47.5t-32.5 -43t-16.5 -40.5t-4.5 -41zM264 641q0 -89 50.5 -140t141.5 -51 q49 0 85 15.5t59.5 43t35 63.5t11.5 75q0 92 -50.5 143.5t-143.5 51.5q-48 0 -83.5 -16t-59 -44t-35 -64.5t-11.5 -76.5z" />
<glyph unicode="h" horiz-adv-x="1076" d="M153 25v1336q0 8 3.5 14t13 10t25.5 6t40 2q25 0 41 -2t25 -6t13 -10t4 -14v-539q71 75 143 111.5t145 36.5q90 0 151.5 -30.5t99.5 -81.5t54.5 -119.5t16.5 -165.5v-548q0 -8 -4 -13.5t-13 -9.5t-25 -6t-40 -2q-25 0 -41 2t-25 6t-13 9.5t-4 13.5v527q0 77 -12 124 t-35 81t-59.5 52t-84.5 18q-62 0 -124 -44t-130 -129v-629q0 -8 -4 -13.5t-13 -9.5t-25 -6t-41 -2q-24 0 -40 2t-25.5 6t-13 9.5t-3.5 13.5z" />
<glyph unicode="i" horiz-adv-x="470" d="M133 1227q0 58 22 79t81 21q58 0 79.5 -20.5t21.5 -77.5q0 -58 -22 -79t-81 -21q-58 0 -79.5 20.5t-21.5 77.5zM153 25v900q0 7 3.5 13t13 10t25.5 6t40 2q25 0 41 -2t25 -6t13 -10t4 -13v-900q0 -8 -4 -13.5t-13 -9.5t-25 -6t-41 -2q-24 0 -40 2t-25.5 6t-13 9.5 t-3.5 13.5z" />
<glyph unicode="j" horiz-adv-x="490" d="M-43 -286q0 18 1.5 31t5 21t8 11.5t11.5 3.5q6 0 23.5 -2.5t40.5 -2.5q33 0 56.5 10t38.5 32.5t22 58.5t7 109v939q0 7 4 13t13.5 10t25.5 6t40 2t40 -2t25.5 -6t13.5 -10t4 -13v-940q0 -100 -15 -161.5t-47 -103.5t-82 -63.5t-121 -21.5q-32 0 -54.5 4t-34.5 9 t-16.5 11.5t-6.5 15t-2.5 17.5t-0.5 22zM153 1227q0 58 21.5 79t80.5 21t80 -20.5t21 -77.5q0 -58 -22 -79t-81 -21q-58 0 -79 20.5t-21 77.5z" />
<glyph unicode="k" horiz-adv-x="931" d="M153 25v1336q0 8 3.5 14t13 10t25.5 6t40 2q25 0 41 -2t25 -6t13 -10t4 -14v-814l340 374q8 10 17 16.5t21.5 11t29.5 6t41 1.5q25 0 42 -1.5t27.5 -5t15 -9t4.5 -14.5q0 -12 -6.5 -24t-21.5 -28l-326 -326l366 -475q13 -17 18.5 -27.5t5.5 -19.5q0 -8 -4 -14t-13.5 -10 t-26.5 -6t-43 -2q-27 0 -44.5 1.5t-29.5 5t-19.5 10t-13.5 15.5l-380 498v-499q0 -8 -4 -13.5t-13 -9.5t-25 -6t-41 -2q-24 0 -40 2t-25.5 6t-13 9.5t-3.5 13.5z" />
<glyph unicode="l" horiz-adv-x="470" d="M153 25v1336q0 8 3.5 14t13 10t25.5 6t40 2q25 0 41 -2t25 -6t13 -10t4 -14v-1336q0 -8 -4 -13.5t-13 -9.5t-25 -6t-41 -2q-24 0 -40 2t-25.5 6t-13 9.5t-3.5 13.5z" />
<glyph unicode="m" horiz-adv-x="1636" d="M153 25v900q0 8 3 13.5t12 10t23 6t37 1.5q22 0 36.5 -1.5t22.5 -6t11.5 -10t3.5 -13.5v-119q76 85 147.5 124.5t144.5 39.5q56 0 100.5 -13t78.5 -36.5t58 -56t40 -72.5q45 49 85.5 83t78 55t73 30.5t71.5 9.5q87 0 146 -30.5t95.5 -81.5t52 -119.5t15.5 -144.5v-569 q0 -8 -4 -13.5t-13 -9.5t-25 -6t-40 -2q-25 0 -41 2t-25.5 6t-13.5 9.5t-4 13.5v547q0 57 -10 104t-32 81t-56 52t-80 18q-57 0 -114.5 -44t-126.5 -129v-629q0 -8 -4 -13.5t-13.5 -9.5t-25.5 -6t-40 -2q-23 0 -39.5 2t-26 6t-13 9.5t-3.5 13.5v547q0 57 -11 104t-33 81 t-55.5 52t-79.5 18q-57 0 -115 -44t-126 -129v-629q0 -8 -4 -13.5t-13 -9.5t-25 -6t-41 -2q-24 0 -40 2t-25.5 6t-13 9.5t-3.5 13.5z" />
<glyph unicode="n" horiz-adv-x="1076" d="M153 25v900q0 8 3 13.5t12 10t23 6t37 1.5q22 0 36.5 -1.5t22.5 -6t11.5 -10t3.5 -13.5v-119q76 85 151.5 124.5t152.5 39.5q90 0 151.5 -30.5t99.5 -81.5t54.5 -119.5t16.5 -164.5v-549q0 -8 -4 -13.5t-13 -9.5t-25 -6t-40 -2q-25 0 -41 2t-25 6t-13 9.5t-4 13.5v527 q0 77 -12 124t-35 81t-59.5 52t-84.5 18q-62 0 -124 -44t-130 -129v-629q0 -8 -4 -13.5t-13 -9.5t-25 -6t-41 -2q-24 0 -40 2t-25.5 6t-13 9.5t-3.5 13.5z" />
<glyph unicode="o" horiz-adv-x="1080" d="M90 467q0 110 28.5 202.5t86 159.5t143.5 104t201 37q111 0 193.5 -33t137.5 -96t82.5 -153t27.5 -203q0 -110 -29 -202.5t-86.5 -159.5t-144 -104.5t-200.5 -37.5q-111 0 -193.5 33t-137.5 96t-82 153t-27 204zM263 478q0 -74 13.5 -139t45 -113.5t84.5 -77t132 -28.5 q72 0 125 26t87 73t50 112t16 143q0 73 -13.5 138t-44.5 114t-84 77.5t-132 28.5q-73 0 -125.5 -26t-86.5 -73.5t-50.5 -112.5t-16.5 -142z" />
<glyph unicode="p" horiz-adv-x="1076" d="M153 -332v1257q0 9 3 14.5t12 9.5t23 5.5t34 1.5q21 0 34.5 -1.5t22.5 -5.5t12.5 -9.5t3.5 -14.5v-121q41 42 79 73t76.5 51.5t79 31t85.5 10.5q98 0 167 -38t112.5 -104t63.5 -153.5t20 -185.5q0 -118 -25.5 -212t-75 -159.5t-122.5 -101t-167 -35.5q-40 0 -74 8 t-66.5 25t-64.5 43t-68 61v-450q0 -8 -4 -14t-13 -10t-25 -6t-41 -2q-24 0 -40 2t-25.5 6t-13 10t-3.5 14zM318 294q68 -83 129 -127t128 -44q62 0 106.5 30t72 80t40.5 112t13 125q0 69 -10.5 133.5t-36 114.5t-68.5 80t-107 30q-32 0 -63 -9.5t-63 -30t-67 -54t-74 -82.5 v-358z" />
<glyph unicode="q" horiz-adv-x="1076" d="M96 464q0 116 25 209.5t74.5 159.5t122 101.5t167.5 35.5q40 0 75 -8.5t69.5 -27t70 -48t77.5 -70.5v109q0 9 4 14.5t13 9.5t23 5.5t35 1.5q20 0 34 -1.5t22.5 -5.5t12 -9.5t3.5 -14.5v-1257q0 -8 -4.5 -14t-13.5 -10t-25 -6t-40 -2q-25 0 -40.5 2t-25.5 6t-13.5 10 t-3.5 14v461q-41 -41 -78 -69.5t-73 -46t-72.5 -25t-75.5 -7.5q-98 0 -167 38.5t-112.5 104t-63.5 154t-20 186.5zM267 482q0 -69 10.5 -134t36.5 -115t69 -80.5t108 -30.5q33 0 63.5 9t62.5 30t67 54.5t74 82.5v360q-67 83 -129.5 126.5t-130.5 43.5q-63 0 -107 -30 t-71.5 -79t-40 -111t-12.5 -126z" />
<glyph unicode="r" horiz-adv-x="714" d="M153 25v900q0 8 3 13.5t12 10t23 6t37 1.5q22 0 36.5 -1.5t22.5 -6t11.5 -10t3.5 -13.5v-131q37 54 69.5 88t61.5 53.5t57.5 27t57.5 7.5q13 0 29.5 -1.5t34.5 -5.5t32.5 -9t20.5 -10t8 -9.5t3.5 -11.5t2 -20.5t0.5 -36.5q0 -22 -1 -37t-4 -23.5t-7.5 -13t-12.5 -4.5 t-19.5 4.5t-26 9t-32.5 8.5t-39 4q-25 0 -49 -10t-50.5 -33t-55.5 -61t-64 -93v-592q0 -8 -4 -13.5t-13 -9.5t-25 -6t-41 -2q-24 0 -40 2t-25.5 6t-13 9.5t-3.5 13.5z" />
<glyph unicode="s" horiz-adv-x="801" d="M81 131q0 19 2 32t5 21t8.5 11.5t12.5 3.5q11 0 32.5 -13.5t53 -29.5t74.5 -29.5t99 -13.5q42 0 76 9t59 26.5t38.5 44.5t13.5 64q0 38 -19.5 64t-51.5 46t-72 35.5t-82.5 32.5t-83 38.5t-72.5 52.5t-51.5 74t-19.5 103q0 53 20.5 101.5t61.5 85t102.5 58.5t143.5 22 q36 0 72 -6t65 -15t49.5 -19.5t31 -18.5t14 -14t5 -13.5t3 -18.5t1.5 -27q0 -17 -1.5 -29.5t-5 -20.5t-8.5 -11.5t-11 -3.5q-9 0 -26 11t-44 23.5t-63.5 23.5t-83.5 11q-42 0 -74 -9.5t-52.5 -27t-31 -41.5t-10.5 -52q0 -39 20 -65.5t52 -46.5t73 -36t83.5 -33t84 -38 t73.5 -51t51.5 -72t19.5 -100q0 -69 -25.5 -123t-72.5 -91t-112 -56t-143 -19q-48 0 -91.5 7.5t-78 19t-58.5 24t-35 22.5t-16 28t-5 49z" />
<glyph unicode="t" horiz-adv-x="686" d="M33 882q0 19 2.5 32t6.5 21.5t10.5 12t14.5 3.5h125v214q0 7 3.5 13t13 10.5t25.5 6.5t40 2q25 0 41 -2t25 -6.5t13 -10.5t4 -13v-214h231q8 0 14 -3.5t10.5 -12t6.5 -21.5t2 -32q0 -36 -9 -52t-24 -16h-231v-502q0 -93 27.5 -140.5t98.5 -47.5q23 0 41 4.5t32 9.5 t24 9.5t18 4.5q5 0 9.5 -2.5t7 -9.5t4.5 -19t2 -30q0 -29 -4 -46t-12 -25t-24 -15t-36.5 -11.5t-43.5 -7.5t-46 -3q-70 0 -120 18.5t-82 56t-46.5 95t-14.5 135.5v526h-126q-15 0 -24 16t-9 52z" />
<glyph unicode="u" horiz-adv-x="1076" d="M148 379v546q0 8 3.5 13.5t13.5 10t26 6t40 1.5t40 -1.5t25.5 -6t13.5 -10t4 -13.5v-524q0 -79 11.5 -126.5t35 -81t59.5 -52t84 -18.5q62 0 123.5 44t130.5 129v629q0 8 3.5 13.5t13.5 10t25.5 6t40.5 1.5q24 0 40 -1.5t25 -6t13.5 -10t4.5 -13.5v-900q0 -8 -3.5 -13.5 t-12.5 -9.5t-23.5 -6t-35.5 -2q-23 0 -37.5 2t-23 6t-11.5 9.5t-3 13.5v119q-77 -85 -152 -124t-152 -39q-90 0 -151.5 30t-99.5 81.5t-54.5 120t-16.5 166.5z" />
<glyph unicode="v" horiz-adv-x="925" d="M34 927q0 8 4 14t13.5 9.5t25 4.5t38.5 1q29 0 46.5 -1.5t27 -5.5t14 -10t8.5 -15l254 -742l4 -12l3 12l251 742q2 9 7 15t14.5 10t26 5.5t43.5 1.5q23 0 38 -1t23.5 -5t12 -9.5t3.5 -13.5q0 -4 -0.5 -8.5t-1.5 -9.5t-2.5 -11t-3.5 -13l-307 -855q-4 -11 -10.5 -18 t-19.5 -11t-33 -5.5t-50 -1.5t-50 2t-32.5 6t-19.5 11t-11 17l-306 855q-4 12 -6.5 21t-3 13.5t-0.5 7.5z" />
<glyph unicode="w" horiz-adv-x="1464" d="M53 927q0 9 4 14.5t13.5 9t25.5 4.5t39 1q28 0 45 -1.5t26 -5t13 -10t7 -15.5l217 -742l2 -9l2 9l199 742q2 9 6.5 15.5t13.5 10t24.5 5t40.5 1.5q24 0 39.5 -1.5t24.5 -5t13 -9.5t6 -14l215 -744l2 -9l1 9l214 742q2 9 6.5 15.5t14 10t26 5t42.5 1.5q24 0 38.5 -1t23 -5 t12 -9t3.5 -14q0 -7 -2 -17t-7 -25l-265 -855q-3 -11 -9.5 -18t-18 -11t-31.5 -5.5t-50 -1.5q-31 0 -52 2t-33.5 6t-18.5 11t-9 17l-189 653l-2 9l-2 -9l-175 -653q-3 -11 -9.5 -18t-19.5 -11t-33.5 -5.5t-50.5 -1.5q-31 0 -50.5 2t-32 6t-18.5 11t-9 17l-263 855 q-5 15 -7 25t-2 17z" />
<glyph unicode="x" horiz-adv-x="887" d="M51 44l280 439l-265 423q-8 14 -8.5 23.5t9 16t29 8.5t51.5 2q29 0 46.5 -1.5t27.5 -4.5t15 -8t9 -12l205 -335l208 335q4 6 9 11t13.5 8.5t24 5t42.5 1.5q29 0 47.5 -2t27.5 -7.5t8 -15.5t-10 -25l-263 -418l278 -444q8 -14 8 -23.5t-9.5 -15.5t-29 -8.5t-50.5 -2.5 q-30 0 -47.5 1.5t-28 5t-16 9t-9.5 12.5l-216 357l-215 -357q-4 -7 -9.5 -12.5t-16 -9t-27.5 -5t-45 -1.5q-29 0 -47.5 2.5t-26.5 8.5t-9 14q0 10 10 25z" />
<glyph unicode="y" horiz-adv-x="927" d="M34 925q0 12 8 19t26 9.5t48 2.5t47 -1.5t27 -5.5t14.5 -11.5t9.5 -20.5l257 -722h3l248 726q6 19 14.5 24.5t25.5 8t49 2.5q28 0 46 -2.5t26.5 -9.5t8.5 -19t-6 -30l-323 -895l-120 -331q-6 -16 -30.5 -24.5t-74.5 -8.5q-26 0 -42 2.5t-24.5 8.5t-9.5 16t5 24l124 313 q-9 4 -17 13t-11 19l-321 860q-8 21 -8 33z" />
<glyph unicode="z" horiz-adv-x="809" d="M89 61v34q0 14 2 25t6 22t11 23.5t17 28.5l397 618h-385q-16 0 -25.5 16.5t-9.5 53.5q0 18 2 31.5t6.5 22t11 12t15.5 3.5h516q11 0 19.5 -3t14.5 -10t9.5 -18t3.5 -28v-32q0 -14 -2 -26t-6 -23.5t-11 -24.5t-17 -29l-395 -618h422q8 0 14.5 -3.5t11 -11.5t7.5 -21.5 t3 -32.5t-3 -32.5t-7 -22t-11 -12t-15 -3.5h-554q-21 0 -34.5 14t-13.5 47z" />
<glyph unicode="{" horiz-adv-x="644" d="M86 565q0 16 1.5 27t5 18.5t9.5 10.5t15 5q74 8 110.5 71.5t36.5 187.5v161q0 105 9.5 169t35 107t68 64.5t108.5 21.5q19 0 31.5 -0.5t30.5 -4.5q7 0 13.5 -3.5t11 -10.5t6.5 -18.5t2 -27.5q0 -17 -2 -28.5t-6.5 -19.5t-11 -11t-14.5 -3l-41 -1q-24 0 -41 -8.5 t-27.5 -33t-16 -67.5t-5.5 -132v-146q0 -73 -8 -124.5t-28.5 -92.5t-54.5 -70.5t-86 -40.5q52 -10 86 -39.5t54.5 -71t28.5 -92.5t8 -125v-190q0 -88 5 -131t15.5 -67.5t27 -33.5t39.5 -9l42 -1q9 0 16 -3t11.5 -10.5t6.5 -19t2 -29.5q0 -16 -2 -27.5t-6.5 -18t-10.5 -10.5 t-12 -4q-18 -4 -31.5 -4.5t-32.5 -0.5q-67 0 -110 21.5t-68 64t-34 106.5t-9 170v206q0 68 -8.5 110t-26 73.5t-45 51t-66.5 23.5q-9 2 -15 5.5t-9.5 10.5t-5.5 18.5t-2 26.5z" />
<glyph unicode="|" horiz-adv-x="943" d="M394 -333v1736q0 7 3.5 13t12.5 10t24 6t37 2q23 0 38 -2t24 -6t12.5 -10t3.5 -13v-1736q0 -8 -3.5 -14t-12.5 -10t-24 -6t-38 -2q-22 0 -37 2t-24 6t-12.5 10t-3.5 14z" />
<glyph unicode="}" horiz-adv-x="644" d="M117 -257q0 17 3 28.5t7.5 19.5t10.5 11t13 3l43 1q24 0 41 9t28 33t16 67t5 132v146q0 74 8.5 132t28.5 108t54.5 86t85.5 47q-51 10 -85.5 32t-54.5 55.5t-28.5 77.5t-8.5 118v190q0 89 -5 131.5t-15.5 67t-27 33.5t-39.5 9l-40 1q-11 0 -18.5 3t-12.5 10.5t-7 19 t-2 29.5q0 16 2.5 27.5t7 18.5t11 10.5t15.5 3.5q17 4 30 4.5t32 0.5q66 0 109 -21.5t68 -64t34.5 -106.5t9.5 -170v-206q0 -68 8.5 -102.5t26 -57.5t45 -35.5t66.5 -17.5q8 0 14 -4t10 -11.5t5.5 -18t1.5 -26.5t-1.5 -27t-5 -18t-9.5 -10.5t-14 -4.5q-42 -4 -70 -29.5 t-45.5 -65.5t-24.5 -89.5t-7 -121.5v-161q0 -105 -10 -169t-35 -107t-68 -64.5t-108 -21.5q-19 0 -32 1t-33 4q-7 0 -13 4t-10 10.5t-7 18t-3 27.5z" />
<glyph unicode="~" d="M61 825v27q0 69 19 121.5t53 88t81.5 53.5t103.5 18q47 0 82.5 -10.5t62.5 -27.5t48 -38.5t39 -44.5t34.5 -43t34.5 -35.5t39 -24.5t49 -9q33 0 56.5 13t38.5 36.5t22 55.5t7 70q0 16 16.5 21.5t48.5 5.5q19 0 32 -1.5t21 -5.5t11 -10t2 -15v-33q-2 -68 -24.5 -119 t-57.5 -85.5t-81 -52t-94 -17.5t-83 10.5t-62 28t-47.5 39.5t-39 45t-35.5 43t-35 35.5t-39 24.5t-48 9q-34 0 -57.5 -14.5t-38.5 -38.5t-21.5 -55t-6.5 -66q0 -18 -17 -23.5t-49 -5.5q-20 0 -32.5 2t-20 5.5t-10 9.5t-2.5 13z" />
<glyph unicode="&#xa1;" horiz-adv-x="667" d="M401.032 1078.01q0 -32.9961 -4.49902 -55.4932q-4.5 -22.4971 -16.498 -34.9961q-11.999 -12.498 -32.4961 -17.9971q-20.498 -5.5 -51.4941 -5.5t-50.9932 5.5q-19.998 5.49902 -32.4961 17.9971q-12.499 12.499 -16.998 34.9961t-4.49902 55.4932t4.49902 54.4932 q4.49902 21.498 16.998 34.9961q12.498 13.498 32.4961 18.9971q19.9971 5.5 50.9932 5.5t51.4941 -5.5q20.4971 -5.49902 32.4961 -18.9971q11.998 -13.498 16.498 -34.9961q4.49902 -21.4971 4.49902 -54.4932zM387.034 -144.838q1 -11.999 -3 -20.998 q-3.99902 -8.99805 -14.498 -14.998q-10.499 -5.99902 -27.9961 -8.49902q-17.498 -2.49902 -45.4951 -2.49902q-26.9961 0 -44.4941 2.99902q-17.498 3 -27.9971 8.99902q-10.498 6 -14.498 14.498q-3.99902 8.49902 -3.99902 20.498l16.998 953.884 q0 7.99902 3.49902 13.998q3.5 5.99902 12.499 9.99902q8.99805 3.99902 22.9971 5.99902q13.998 2 34.9951 2q20.998 0 34.9961 -2t22.9971 -5.99902q8.99902 -4 12.499 -9.99902q3.49902 -5.99902 3.49902 -13.998z" />
<glyph unicode="&#xa2;" d="M185 633q0 116 25 203.5t70 148.5t107 96.5t136 47.5v147q0 7 3.5 13t12 10t22 6t34.5 2t35.5 -2t23 -6t11.5 -10t3 -13v-144q28 -3 56.5 -11.5t55 -20t50 -27t35.5 -27.5t16.5 -19t7.5 -16t4 -21t1 -29q0 -14 -1.5 -26.5t-5.5 -22.5t-11 -16t-16 -6q-16 0 -34.5 17 t-48 36.5t-72 36.5t-104.5 17q-51 0 -95 -19t-77.5 -61.5t-53 -110t-19.5 -165.5q0 -94 19.5 -160.5t54.5 -108.5t82.5 -61t103.5 -19t97.5 17.5t71 39t49.5 39.5t32 18q8 0 12.5 -5.5t8 -16t4.5 -25t1 -32.5q0 -32 -4.5 -48.5t-15.5 -28.5t-31.5 -26.5t-47 -28t-57.5 -24 t-68 -15.5v-147q0 -7 -3 -13t-11.5 -10t-22.5 -6t-35 -2t-35 2t-22.5 6t-11.5 10t-3 13v144q-168 21 -253.5 142.5t-85.5 337.5z" />
<glyph unicode="&#xa3;" horiz-adv-x="1038" d="M83 69q0 18 2.5 31.5t7.5 22t11.5 12.5t14.5 4h123v454h-123q-7 0 -13 3.5t-11.5 11.5t-8.5 20.5t-3 32.5q0 17 2.5 30t7.5 21.5t11.5 12t14.5 3.5h123v120q0 123 28 211t79.5 144t124.5 81.5t163 25.5q42 0 82.5 -7.5t75 -20.5t62 -30t41 -30t18.5 -21t8 -18t4 -22 t1 -30q0 -17 -2 -30t-6 -21.5t-9.5 -13t-12.5 -4.5q-14 0 -33.5 17t-49.5 37t-72.5 37t-101.5 17q-60 0 -103.5 -20.5t-71.5 -60.5t-42 -99t-14 -136v-126h328q8 0 14.5 -3.5t11 -12t7 -21.5t2.5 -30q0 -20 -3 -32.5t-8 -20.5t-11 -11.5t-13 -3.5h-328v-454h504q7 0 13.5 -4 t11.5 -12.5t7.5 -22t2.5 -31.5q0 -19 -3 -32t-8 -21t-11.5 -12t-12.5 -4h-796q-7 0 -13 4t-11.5 12t-8.5 21t-3 32z" />
<glyph unicode="&#xa4;" d="M66 1095.5q-3 12.5 4 20t23 11t44 3.5q24 0 40.5 -1t27.5 -4t17.5 -7.5t11.5 -12.5l106 -170q36 19 80 29.5t96 10.5q48 0 90 -9.5t77 -29.5l107 171q4 8 10.5 13.5t17 8t27 4t41.5 1.5q28 0 44.5 -4t23 -12t3 -20t-13.5 -29l-145 -211q41 -49 62.5 -117t21.5 -151 t-26 -154.5t-75 -125.5l145 -209q11 -17 13.5 -29.5t-4 -20t-23 -11.5t-43.5 -4q-25 0 -41 1.5t-27 4t-17.5 7.5t-11.5 13l-106 169q-35 -18 -77.5 -28.5t-90.5 -10.5q-46 0 -84 7.5t-69 22.5l-107 -171q-5 -8 -11 -13t-17 -7.5t-27.5 -3.5t-40.5 -1q-28 0 -44.5 3.5 t-23.5 11t-4 19.5t14 28l142 207q-47 49 -70.5 120.5t-23.5 158.5t24.5 157.5t68.5 122.5l-145 212q-11 17 -14 29.5zM285 591q0 -61 12.5 -111t40 -86t70.5 -56t105 -20q54 0 94.5 20.5t67.5 55.5t40.5 81.5t13.5 99.5q0 55 -12.5 105.5t-39 87.5t-69 59.5t-102.5 22.5 q-55 0 -96.5 -19.5t-69 -54.5t-41.5 -82t-14 -103z" />
<glyph unicode="&#xa5;" horiz-adv-x="1038" d="M55 1267.5q-3 13.5 5 20.5t28 9.5t54 2.5q27 0 44.5 -1.5t28.5 -5t17 -9.5t11 -15l150 -268q35 -63 67.5 -128t65.5 -130q33 65 65 130t67 128l149 268q4 9 9 15t14.5 9.5t27 5t46.5 1.5q31 0 49.5 -2.5t25.5 -9.5t3.5 -20.5t-15.5 -34.5l-362 -619v-54h276 q14 0 22 -14.5t8 -45.5q0 -35 -9 -48.5t-21 -13.5h-276v-158h276q14 0 22 -14.5t8 -45.5q0 -34 -9 -47.5t-21 -13.5h-276v-135q0 -8 -4 -13.5t-14 -9t-27 -5.5t-41 -2q-25 0 -41.5 2t-26.5 5.5t-14 9t-4 13.5v135h-276q-12 0 -21 13.5t-9 47.5q0 31 9 45.5t21 14.5h276v158 h-276q-12 0 -21 13.5t-9 48.5q0 31 9 45.5t21 14.5h276v54l-362 619q-13 21 -16 34.5z" />
<glyph unicode="&#xa6;" d="M430 313q0 7 3.5 13t12.5 10.5t24.5 6.5t37.5 2q23 0 38 -2t24 -6.5t12.5 -10.5t3.5 -13v-673q0 -7 -3.5 -13t-12.5 -10t-24 -6t-38 -2q-22 0 -37.5 2t-24.5 6t-12.5 10t-3.5 13v673zM430 759v663q0 7 3.5 13t12.5 10t24.5 6.5t37.5 2.5q23 0 38 -2.5t24 -6.5t12.5 -10 t3.5 -13v-663q0 -7 -3.5 -13t-12.5 -10.5t-24 -6t-38 -1.5q-22 0 -37.5 1.5t-24.5 6t-12.5 10.5t-3.5 13z" />
<glyph unicode="&#xa7;" d="M118 605q0 41 12.5 80.5t35.5 74.5t55 66t71 52q-39 38 -59 86t-20 114q0 61 23.5 110.5t66.5 84.5t102.5 53.5t131.5 18.5q39 0 74.5 -6t65 -15.5t50.5 -21t28 -17.5t10 -11t5 -13.5t3.5 -20.5t1.5 -28q0 -17 -2 -29.5t-5 -20.5t-8 -11.5t-12 -3.5q-9 0 -24 11t-40 24 t-61.5 24.5t-86.5 11.5q-43 0 -72.5 -12t-48.5 -30t-27.5 -41.5t-8.5 -46.5q0 -37 10.5 -64.5t32.5 -49.5t56.5 -41.5t84.5 -39.5l87 -35q60 -25 108 -53t81.5 -64t51.5 -83t18 -108q0 -41 -12.5 -81t-35 -75t-54 -65.5t-69.5 -53.5q38 -36 57.5 -82t19.5 -104 q0 -70 -26.5 -124.5t-74 -92t-113 -56.5t-143.5 -19q-52 0 -96.5 9.5t-78.5 22t-56.5 26t-29 20t-10 12t-5.5 14t-3 19.5t-1 26q0 18 2 31t5.5 21.5t8.5 12t12 3.5q14 0 33.5 -13.5t49.5 -29.5t73 -29.5t104 -13.5q39 0 73 9t58 27t37.5 45t13.5 64q0 35 -10 61t-32 47.5 t-57 40t-85 38.5l-87 35q-60 25 -108 53t-81.5 64.5t-51.5 83t-18 109.5zM283 616q0 -35 10 -62t31 -49t53 -41t75 -36l84 -34q25 -9 46 -19.5t41 -22.5q63 28 92 79.5t29 106.5q0 69 -41 111.5t-128 75.5l-84 35q-25 10 -46 20t-41 21q-62 -28 -91.5 -78.5t-29.5 -106.5z " />
<glyph unicode="&#xa8;" horiz-adv-x="804" d="M0 951zM132 1214q0 56 19.5 76t73.5 20q55 0 74 -20t19 -73q0 -55 -20 -75t-74 -20t-73 19.5t-19 72.5zM486 1214q0 56 19.5 76t73.5 20q55 0 74 -20t19 -73q0 -55 -20 -75t-74 -20t-73 19.5t-19 72.5z" />
<glyph unicode="&#xa9;" horiz-adv-x="1709" d="M175 665q0 186 43.5 324t129 229t213 136.5t295.5 45.5q175 0 302 -45.5t211 -132.5t124.5 -214.5t40.5 -291.5q0 -190 -44.5 -328.5t-131.5 -229t-214 -134t-292 -43.5q-169 0 -296 43t-211.5 128.5t-127 213.5t-42.5 299zM309 675q0 -143 31 -251.5t97.5 -181 t171.5 -109t253 -36.5q155 0 258 46.5t165 128.5t88.5 193.5t26.5 239.5q0 138 -29 245.5t-95 181.5t-171.5 113t-258.5 39q-136 0 -237 -38.5t-168 -114.5t-99.5 -190t-32.5 -266zM499 682q0 117 28.5 202t79 139.5t119.5 81t149 26.5q39 0 74.5 -7.5t66 -19.5t55.5 -28 t36.5 -27t15 -17t6 -14t3.5 -19t1 -24t-2 -24t-5 -19.5t-8.5 -13t-13.5 -4.5q-17 0 -34.5 14.5t-43 32t-62 32t-91.5 14.5q-107 0 -164.5 -81t-57.5 -236q0 -81 15 -140t44.5 -98.5t72.5 -58.5t99 -19q51 0 88 15.5t63.5 34.5t44.5 34.5t32 15.5q5 0 9.5 -3t7 -11t4 -21 t1.5 -31q0 -15 -1 -26t-3.5 -19.5t-5.5 -14.5t-12.5 -15t-33.5 -25t-56 -29.5t-72 -22t-85 -8.5q-89 0 -157 28t-114 83.5t-69.5 136t-23.5 186.5z" />
<glyph unicode="&#xaa;" horiz-adv-x="824" d="M114 407q0 35 9 49t26 14h495q18 0 26.5 -14t8.5 -49q0 -34 -8.5 -48t-26.5 -14h-495q-17 0 -26 14t-9 48zM116 810q0 53 21.5 92.5t62 65.5t99 38.5t134.5 12.5h90v41q0 32 -7 56t-23.5 40.5t-43.5 24.5t-67 8q-39 0 -72 -9.5t-57.5 -21t-41.5 -21t-24 -9.5 q-16 0 -25 17.5t-9 49.5q0 11 1.5 20.5t5.5 15.5t11 12t36.5 20t81.5 29t117 15q73 0 123.5 -17t82 -48.5t46 -76t14.5 -100.5v-420q0 -6 -3.5 -10t-10.5 -7t-19 -5t-29 -2q-20 0 -32.5 2t-19.5 5t-10 7.5t-3 10.5v54h-2q-38 -42 -89 -66t-111 -24q-52 0 -94 13.5 t-71.5 38.5t-45.5 62t-16 86zM269 816q0 -46 28.5 -71t77.5 -25q22 0 40.5 5t35.5 14.5t34.5 24.5t37.5 37v122h-86q-45 0 -77 -7t-52 -21t-29.5 -34t-9.5 -45z" />
<glyph unicode="&#xab;" horiz-adv-x="1049" d="M117 523q0 20 15 42l217 347q5 8 10.5 13t14.5 8t22.5 4t35.5 1q25 0 40 -3t22 -9t7 -14t-6 -19l-212 -373l213 -373q6 -10 6.5 -18.5t-6 -15t-21.5 -9.5t-41 -3q-22 0 -35.5 1t-22.5 4t-14.5 8t-10.5 13l-221 353q-13 23 -13 43zM486 522.5q0 19.5 15 41.5l214 329 q5 7 10.5 12.5t14.5 8.5t23 3.5t36 0.5q25 0 40.5 -2.5t23 -8t8 -13t-5.5 -17.5l-215 -355l219 -361q6 -10 6 -17t-7.5 -12t-23 -7.5t-40.5 -2.5q-23 0 -37 0.5t-23 3.5t-14 7t-11 13l-219 336q-14 21 -14 40.5z" />
<glyph unicode="&#xac;" d="M61 573q0 19 3 32t7.5 21.5t11 12.5t14.5 4h754q39 0 55 -14t16 -53v-255q0 -8 -4 -14.5t-12.5 -11t-22.5 -6.5t-35 -2q-19 0 -33 2t-23 6.5t-13 11t-4 14.5v181h-679q-8 0 -14.5 4t-11 12.5t-7 22t-2.5 32.5z" />
<glyph unicode="&#xad;" horiz-adv-x="627" d="M69 505q0 38 9 53t27 15h418q8 0 14.5 -3t11 -11.5t7 -21.5t2.5 -32q0 -39 -9 -54t-26 -15h-418q-18 0 -27 15.5t-9 53.5z" />
<glyph unicode="&#x2010;" horiz-adv-x="627" d="M69 505q0 38 9 53t27 15h418q8 0 14.5 -3t11 -11.5t7 -21.5t2.5 -32q0 -39 -9 -54t-26 -15h-418q-18 0 -27 15.5t-9 53.5z" />
<glyph unicode="&#xae;" horiz-adv-x="1038" d="M128 1018q0 82 30.5 153t83.5 123.5t124.5 82.5t154.5 30q85 0 156.5 -29t123 -80.5t80.5 -122.5t29 -155q0 -82 -30.5 -153.5t-83.5 -124t-125 -83t-154 -30.5q-85 0 -156.5 29.5t-123 81t-80.5 122.5t-29 156zM218 1022q0 -70 22.5 -128t62.5 -99.5t95 -64t119 -22.5 q69 0 125 24.5t95.5 66t61 97t21.5 118.5q0 71 -22.5 129t-62.5 99.5t-95 63.5t-119 22q-69 0 -124.5 -24t-95.5 -66t-61.5 -97.5t-21.5 -118.5zM361 834v359q0 22 11 34.5t33 12.5h115q40 0 70.5 -7t52 -22t32.5 -37.5t11 -53.5q0 -48 -26 -74.5t-70 -37.5q24 -8 45 -27 t36 -57l24 -64q7 -23 7 -29q0 -4 -1.5 -7.5t-7.5 -5t-17 -2.5t-30 -1q-17 0 -27.5 1t-17 3.5t-10 7t-5.5 12.5l-21 69q-12 37 -28.5 51.5t-49.5 14.5h-27v-140q0 -11 -8.5 -15t-39.5 -4t-41 4t-10 15zM460 1050h44q42 0 58 16t16 42q0 11 -3 21t-11.5 17.5t-22.5 11.5t-35 4 h-46v-112z" />
<glyph unicode="&#xaf;" horiz-adv-x="807" d="M0 951zM132 1228q0 18 2 30.5t6 20t10.5 11t14.5 3.5h479q8 0 14 -3.5t9.5 -11t6 -20t2.5 -30.5q0 -17 -2.5 -28.5t-6 -19.5t-9.5 -12t-14 -4h-479q-8 0 -14.5 4t-10.5 12t-6 19.5t-2 28.5z" />
<glyph unicode="&#x2c9;" horiz-adv-x="807" d="M0 951zM132 1228q0 18 2 30.5t6 20t10.5 11t14.5 3.5h479q8 0 14 -3.5t9.5 -11t6 -20t2.5 -30.5q0 -17 -2.5 -28.5t-6 -19.5t-9.5 -12t-14 -4h-479q-8 0 -14.5 4t-10.5 12t-6 19.5t-2 28.5z" />
<glyph unicode="&#xb0;" horiz-adv-x="694" d="M0 1294zM103 1125q0 51 19 94.5t52.5 74.5t78.5 49t98 18q52 0 96 -17t76 -46.5t50 -71.5t18 -93q0 -49 -18.5 -92t-52 -75.5t-79 -50.5t-98.5 -18t-96.5 16.5t-75.5 46.5t-50 72t-18 93zM227 1131q0 -29 9 -53t25.5 -41t39 -26.5t48.5 -9.5q24 0 45.5 10t37 27.5 t24.5 40.5t9 50t-9 50.5t-25 40.5t-38 26.5t-48 9.5q-25 0 -46.5 -9.5t-37.5 -26.5t-25 -40t-9 -49z" />
<glyph unicode="&#xb1;" d="M76 720q0 18 2.5 31.5t7.5 21.5t11.5 12t14.5 4h325v362q0 7 4 13t12.5 10.5t22.5 7t34 2.5t33.5 -2.5t22 -7t12.5 -10.5t4 -13v-362h326q7 0 13.5 -4t12 -12t8 -21.5t2.5 -31.5q0 -37 -11 -54t-26 -17h-325v-360q0 -7 -4 -12.5t-12.5 -9.5t-22 -6.5t-33.5 -2.5t-34 2.5 t-22.5 6.5t-12.5 9.5t-4 12.5v360h-324q-15 0 -26 17t-11 54zM84 70q0 20 3 33t7.5 21.5t11.5 13t14 4.5h783q8 0 14 -4.5t11 -13t7.5 -21.5t2.5 -33t-3 -33.5t-8.5 -22t-11.5 -11.5t-13 -3h-781q-7 0 -13.5 3t-11.5 11.5t-8.5 22t-3.5 33.5z" />
<glyph unicode="&#xb2;" horiz-adv-x="688" d="M75 776q0 16 1.5 27t5.5 20.5t10.5 18t16.5 19.5l153 150q50 48 80.5 87t47.5 71t22 59t5 51q0 47 -32 77t-91 30q-37 0 -66.5 -10t-52 -21t-38.5 -21t-24 -10q-4 0 -8.5 3t-7.5 10.5t-4.5 19t-1.5 27.5q0 22 3 35.5t12 22.5t30 21.5t50.5 23t65.5 17.5t76 7 q63 0 110.5 -16t78.5 -44t46.5 -67t15.5 -84q0 -35 -6.5 -69.5t-29.5 -77t-66.5 -94.5t-116.5 -120l-106 -101h334q12 0 19.5 -15t7.5 -43q0 -29 -6 -44t-20 -15h-470q-11 0 -19.5 2t-14 8t-8 17t-2.5 28z" />
<glyph unicode="&#xb3;" horiz-adv-x="685" d="M65 828q0 22 5 36t17 14q6 0 22 -9t41 -19t58.5 -18.5t74.5 -8.5q76 0 117 30t41 85q0 29 -12 52.5t-36.5 39.5t-60.5 24t-84 8h-72q-8 0 -13 3t-8.5 10t-5.5 18t-2 27q0 14 2 24t5.5 16t8.5 9t12 3h69q83 0 127 33t44 92q0 46 -30 73t-91 27q-36 0 -67.5 -9.5t-56 -21 t-41 -21t-22.5 -9.5q-11 0 -15.5 12t-4.5 41q0 13 1 22t2.5 15.5t4 11t8.5 10.5t28 17.5t51.5 21.5t65.5 17t74 7q62 0 108.5 -14t77 -40t45 -61.5t14.5 -78.5q0 -72 -39 -122t-116 -66v-2q40 -3 74.5 -17.5t60.5 -39t40 -56.5t14 -70q0 -56 -21.5 -100t-61 -74t-97 -46 t-127.5 -16q-47 0 -85 6t-65.5 14.5t-43.5 17t-20 12t-7 9t-4.5 13t-2.5 19t-1 29.5z" />
<glyph unicode="&#xb4;" horiz-adv-x="598" d="M0 951zM132.5 1115q1.5 8 8.5 19l145 231q6 11 14 18t19.5 11t28.5 6t41 2q28 0 45.5 -3.5t24.5 -10t6 -15t-9 -17.5l-181 -233q-8 -10 -14.5 -16t-15 -9.5t-22 -5t-33.5 -1.5q-22 0 -35 3t-18.5 8t-4 13z" />
<glyph unicode="&#xb5;" horiz-adv-x="1126" d="M153 -332v1257q0 8 3.5 13.5t13 10t25.5 6t40 1.5q25 0 41 -1.5t25 -6t13 -10t4 -13.5v-566q0 -111 49 -173t142 -62q62 0 123.5 43.5t130.5 128.5v629q0 8 4 13.5t13 10t25 6t41 1.5q24 0 40 -1.5t25 -6t13 -10t4 -13.5v-654q0 -41 4 -69.5t13 -45.5t24.5 -25t39.5 -8 q16 0 28 2t20.5 4t15 4t13.5 2q4 0 7.5 -2.5t6 -8.5t3.5 -17.5t1 -30.5q0 -31 -3.5 -47t-10.5 -22t-17.5 -10.5t-26.5 -7.5t-32.5 -5t-36.5 -2q-84 0 -134 36.5t-66 123.5q-73 -84 -145 -120.5t-142 -36.5q-58 0 -104.5 16t-77.5 55q2 -22 3.5 -47.5t3.5 -52t2.5 -52.5 t0.5 -48v-188q0 -8 -4 -14t-13 -10t-25 -6t-41 -2q-24 0 -40 2t-25.5 6t-13 10t-3.5 14z" />
<glyph unicode="&#xb6;" horiz-adv-x="1200" d="M107 909q0 82 29 152t83.5 122t136 81.5t206.5 29.5h403q29 0 43 -17t14 -43v-1439q0 -7 -3.5 -12.5t-11.5 -8.5t-22 -5.5t-35 -2.5q-20 0 -34 2.5t-22.5 5.5t-11.5 8.5t-3 12.5v1370h-198v-1370q0 -7 -4 -12.5t-11.5 -8.5t-21.5 -5.5t-35 -2.5q-42 0 -57 8t-15 21v738 q-103 0 -183 25.5t-135 74t-83.5 118t-28.5 158.5z" />
<glyph unicode="&#xb7;" horiz-adv-x="517" d="M151 581q0 71 23.5 94.5t85.5 23.5q60 0 83 -23t23 -92q0 -71 -23.5 -94.5t-85.5 -23.5q-60 0 -83 23t-23 92z" />
<glyph unicode="&#x2219;" horiz-adv-x="517" d="M151 581q0 71 23.5 94.5t85.5 23.5q60 0 83 -23t23 -92q0 -71 -23.5 -94.5t-85.5 -23.5q-60 0 -83 23t-23 92z" />
<glyph unicode="&#xb8;" horiz-adv-x="629" d="M132 -293q0 31 6.5 41.5t21.5 10.5h124q32 0 50 13.5t18 40.5q0 13 -6 32.5t-16 41.5l-51 113h145l34 -74q21 -45 30.5 -74.5t9.5 -55.5q0 -38 -14 -68t-40 -50.5t-62 -31.5t-81 -11q-34 0 -65.5 4.5t-54 9.5t-31 9t-12 10t-5 15t-1.5 24z" />
<glyph unicode="&#xb9;" horiz-adv-x="504" d="M35 1327q0 14 1 24t3.5 16.5t7 11.5t11.5 10l186 111q3 1 8.5 3t13 3t18.5 1.5t27 0.5q20 0 32.5 -1.5t19 -3.5t8.5 -5.5t2 -8.5v-750q0 -7 -4 -11.5t-13 -7t-22.5 -4t-33.5 -1.5t-33 1t-21 4t-11.5 7.5t-3.5 11.5v628l-149 -80q-14 -7 -23 -8t-14 4t-7.5 16t-2.5 28z " />
<glyph unicode="&#xba;" horiz-adv-x="865" d="M100 958q0 78 21 142.5t62.5 111t104.5 72.5t148 26q80 0 141 -24.5t101.5 -69t61.5 -108.5t21 -143t-22 -144.5t-63.5 -112t-103.5 -72.5t-142 -26q-85 0 -147.5 23.5t-103 68t-60 109t-19.5 147.5zM136 407q0 35 9 49t26 14h518q18 0 26.5 -14t8.5 -49q0 -34 -8.5 -48 t-26.5 -14h-518q-17 0 -26 14t-9 48zM261 962q0 -49 8 -90.5t27.5 -72t52.5 -48t81 -17.5q41 0 73 13.5t53.5 41t32.5 70t11 99.5q0 46 -8.5 87.5t-28 73t-52 50t-81.5 18.5q-44 0 -76 -16.5t-52.5 -46t-30.5 -71t-10 -91.5z" />
<glyph unicode="&#xbb;" horiz-adv-x="1049" d="M173 895q0 7 7.5 12t23 8t41.5 3q22 0 36.5 -1t23 -4t14 -7.5t10.5 -12.5l219 -336q14 -21 14 -40.5t-15 -41.5l-214 -329q-5 -8 -10 -13t-14 -7.5t-23 -3.5t-37 -1q-26 0 -41.5 2.5t-23 8t-7.5 13t7 17.5l215 355l-220 361q-6 10 -6 17zM545.5 910.5q-0.5 8.5 6.5 15 t22 9.5t40 3q22 0 35.5 -1t22.5 -4t14 -8t11 -13l220 -353q14 -23 14 -43t-15 -43l-217 -346q-5 -8 -10.5 -13t-14 -8t-22.5 -4t-36 -1q-25 0 -40 3t-22.5 9t-7 14t6.5 18l213 374l-214 373q-6 10 -6.5 18.5z" />
<glyph unicode="&#xbc;" horiz-adv-x="1303" d="M675 189q0 16 0.5 27t2.5 20t5.5 17t9.5 18l236 362q3 4 10 7.5t18.5 6.5t29 4.5t41.5 1.5q28 0 47.5 -1.5t32 -4.5t17.5 -7.5t5 -9.5v-396h75q10 0 16.5 -11.5t6.5 -38.5q0 -26 -6 -40t-17 -14h-75v-113q0 -6 -3.5 -10t-11.5 -7t-21.5 -4.5t-33.5 -1.5q-19 0 -32 1.5 t-21 4.5t-11.5 7t-3.5 10v113h-286q-8 0 -14 2t-9.5 8t-5.5 18t-2 31zM791 234h201v302h-2zM101.5 -5.5q1.5 9.5 9.5 21.5l900 1289q5 8 12 13.5t17.5 8.5t24 4.5t34.5 1.5t34.5 -3.5t19.5 -10.5t4.5 -17t-9.5 -21l-901 -1289q-5 -9 -12 -13.5t-17 -8t-24 -5t-34 -1.5 q-22 0 -35.5 4t-19 10.5t-4 16zM68 1126q0 13 0.5 23.5t3.5 18.5t7.5 13t10.5 9l187 110q4 1 8.5 2t11 1.5t17 1t26.5 0.5q21 0 33.5 -1t20 -3t10 -4.5t2.5 -7.5v-625q0 -6 -4 -10.5t-12.5 -7.5t-22 -4t-34.5 -1q-19 0 -32.5 1t-22 4t-12 7.5t-3.5 10.5v504l-149 -78 q-14 -7 -23 -8.5t-14 3t-7 14.5t-2 27z" />
<glyph unicode="&#xbd;" horiz-adv-x="1375" d="M68 1126q0 13 0.5 23.5t3.5 18.5t7.5 13t10.5 9l187 110q4 1 8.5 2t11 1.5t17 1t26.5 0.5q21 0 33.5 -1t20 -3t10 -4.5t2.5 -7.5v-625q0 -6 -4 -10.5t-12.5 -7.5t-22 -4t-34.5 -1q-19 0 -32.5 1t-22 4t-12 7.5t-3.5 10.5v504l-149 -78q-14 -7 -23 -8.5t-14 3t-7 14.5 t-2 27zM806 57q0 15 1 25.5t4 19.5t8.5 16.5t16.5 16.5l133 122q37 35 62 61t40 49t21.5 45t6.5 47q0 39 -27 64t-73 25q-34 0 -60.5 -8t-46 -17.5t-32.5 -17.5t-20 -8q-4 0 -8 3t-6.5 10t-4 18t-1.5 28q0 20 2.5 30t9.5 18t26.5 18t46 19t59 15t67.5 6q56 0 97.5 -13.5 t69.5 -38.5t41.5 -59t13.5 -75q0 -33 -8.5 -64.5t-29 -65t-57 -72t-91.5 -83.5l-95 -80h285q14 0 20.5 -15t6.5 -43t-6.5 -40.5t-16.5 -12.5h-413q-12 0 -19.5 2t-12.5 8t-7.5 17t-2.5 30zM101.5 -5.5q1.5 9.5 9.5 21.5l900 1289q5 8 12 13.5t17.5 8.5t24 4.5t34.5 1.5 t34.5 -3.5t19.5 -10.5t4.5 -17t-9.5 -21l-901 -1289q-5 -9 -12 -13.5t-17 -8t-24 -5t-34 -1.5q-22 0 -35.5 4t-19 10.5t-4 16z" />
<glyph unicode="&#xbe;" horiz-adv-x="1383" d="M71 739q0 27 4.5 36t13.5 9q8 0 22 -7.5t35 -16t51 -15.5t72 -7q35 0 59.5 8t40 20.5t23 29t7.5 33.5q0 23 -9 41t-28.5 31t-50.5 19.5t-75 6.5h-66q-7 0 -12 2.5t-8 8.5t-5 16t-2 24q0 15 2 24.5t5 15t7.5 7.5t10.5 2h65q71 0 108 25.5t37 70.5q0 35 -26 58.5t-83 23.5 q-29 0 -55 -8t-46.5 -17.5t-35 -17t-20.5 -7.5q-4 0 -8 2t-7 8t-4.5 15.5t-1.5 23.5q0 11 0.5 18.5t2 13.5t4 10t7.5 9t23 14.5t45 18t60.5 15t71.5 6.5q56 0 97 -12.5t68.5 -34t41 -52t13.5 -67.5q0 -29 -9.5 -54t-27 -45.5t-43 -35t-55.5 -22.5q40 -4 70.5 -17t51 -33 t31.5 -46.5t11 -57.5q0 -45 -20 -82t-56 -63t-87 -40.5t-113 -14.5q-34 0 -65.5 4.5t-57.5 11.5t-44.5 15.5t-26 16.5t-10.5 20.5t-3 38.5zM180.5 -5.5q1.5 9.5 9.5 21.5l900 1289q5 8 12 13.5t17.5 8.5t24 4.5t34.5 1.5t34.5 -3.5t19.5 -10.5t4.5 -17t-9.5 -21l-901 -1289 q-5 -9 -12 -13.5t-17 -8t-24 -5t-34 -1.5q-22 0 -35.5 4t-19 10.5t-4 16zM755 189q0 16 0.5 27t2.5 20t5.5 17t9.5 18l236 362q3 4 10 7.5t18.5 6.5t29 4.5t41.5 1.5q28 0 47.5 -1.5t32 -4.5t17.5 -7.5t5 -9.5v-396h75q10 0 16.5 -11.5t6.5 -38.5q0 -26 -6 -40t-17 -14h-75 v-113q0 -6 -3.5 -10t-11.5 -7t-21.5 -4.5t-33.5 -1.5q-19 0 -32 1.5t-21 4.5t-11.5 7t-3.5 10v113h-286q-8 0 -14 2t-9.5 8t-5.5 18t-2 31zM871 234h201v302h-2z" />
<glyph unicode="&#xbf;" horiz-adv-x="949" d="M816.017 -48.8496q0 -23.9971 -3 -36.4961q-3 -12.498 -12.998 -21.9971q-9.99902 -9.49902 -38.4961 -24.9971q-28.4961 -15.498 -68.9912 -28.4961t-88.9893 -21.9971t-100.487 -8.99902q-106.987 0 -183.978 30.4961q-76.9912 30.4961 -126.984 82.4902 q-49.9941 51.9932 -73.9912 121.984q-23.9971 69.9922 -23.9971 147.982q0 87.9893 24.9971 155.98q24.9971 67.9922 69.9912 115.986t107.987 74.9902q62.9922 26.9971 139.982 31.9961l6.99902 240.971q0 14.998 17.498 22.498q17.498 7.49902 56.4932 7.49902 q20.9971 0 35.9951 -1.5q14.999 -1.5 23.9971 -5q8.99902 -3.49902 12.999 -9.49805q3.99902 -6 3.99902 -13.999l6 -276.966q0.999023 -22.9971 -3.5 -37.4951q-4.5 -14.498 -13.498 -23.9971q-8.99902 -9.49902 -22.998 -12.999q-13.998 -3.49902 -31.9961 -3.49902 h-21.9971q-64.9922 0 -110.986 -20.498q-45.9941 -20.4971 -74.4912 -54.4932q-28.4961 -33.9961 -41.4941 -79.9902q-12.999 -45.9941 -12.999 -95.9883q0 -56.9932 15.998 -104.487t47.9941 -81.9902q31.9961 -34.4951 80.4902 -53.4932t114.486 -18.998 q57.9932 0 101.487 12.499q43.4951 12.498 75.4912 27.4971q31.9961 14.998 52.4932 26.9961q20.498 11.999 30.4961 11.999q7 0 12.499 -3t9.49902 -11.499q3.99902 -8.49805 5.99902 -22.9971q2 -14.498 2 -36.4951zM620.04 1078.01q0 -32.9961 -4.49902 -55.4932 q-4.5 -22.4971 -16.998 -34.9961q-12.499 -12.498 -32.4961 -17.9971q-19.998 -5.5 -51.9941 -5.5q-29.9961 0 -50.4932 5.5q-20.498 5.49902 -32.4961 17.9971q-11.999 12.499 -16.498 34.9961q-4.5 22.4971 -4.5 55.4932t4.5 54.4932q4.49902 21.498 16.498 34.9961 q11.998 13.498 32.4961 18.9971q20.4971 5.5 50.4932 5.5q31.9961 0 51.9941 -5.5q19.9971 -5.49902 32.4961 -18.9971q12.498 -13.498 16.998 -34.9961q4.49902 -21.4971 4.49902 -54.4932z" />
<glyph unicode="&#xc0;" horiz-adv-x="1185" d="M44 62l434 1202q4 11 10.5 18t19 11t32 5.5t49.5 1.5q32 0 53 -1.5t34 -5.5t20 -11.5t11 -18.5l434 -1202q9 -21 9 -35v-2q0 -12 -8 -19t-26.5 -9t-49.5 -2t-49.5 1.5t-28 5t-14 9.5t-8.5 15l-111 315h-538l-106 -311q-3 -9 -8 -15.5t-14.5 -11t-27 -6.5t-45.5 -2 q-29 0 -47.5 2.5t-26.5 9.5q-7 7 -7 19q0 14 9 37zM360 477h450l-226 645h-1zM127 1294zM259.5 1657q-2.5 9 4.5 16t24.5 11.5t47.5 4.5q25 0 42.5 -1.5t30.5 -5.5t24 -11t22 -20l188 -213q9 -11 11.5 -19t-2.5 -13.5t-18.5 -8t-36.5 -2.5q-21 0 -35 1.5t-25 5t-19.5 9 t-18.5 15.5l-226 212q-11 10 -13.5 19z" />
<glyph unicode="&#xc1;" horiz-adv-x="1185" d="M44 62l434 1202q4 11 10.5 18t19 11t32 5.5t49.5 1.5q32 0 53 -1.5t34 -5.5t20 -11.5t11 -18.5l434 -1202q9 -21 9 -35v-2q0 -12 -8 -19t-26.5 -9t-49.5 -2t-49.5 1.5t-28 5t-14 9.5t-8.5 15l-111 315h-538l-106 -311q-3 -9 -8 -15.5t-14.5 -11t-27 -6.5t-45.5 -2 q-29 0 -47.5 2.5t-26.5 9.5q-7 7 -7 19q0 14 9 37zM360 477h450l-226 645h-1zM371 1294zM504 1419q2 8 11 19l189 213q11 13 21.5 20t23.5 11t31 5.5t43 1.5q30 0 47 -4.5t24 -11.5t4.5 -16t-11.5 -19l-227 -212q-10 -10 -18.5 -15.5t-19.5 -9t-25.5 -5t-35.5 -1.5 q-23 0 -36 2.5t-18 8t-3 13.5z" />
<glyph unicode="&#xc2;" horiz-adv-x="1185" d="M44 62l434 1202q4 11 10.5 18t19 11t32 5.5t49.5 1.5q32 0 53 -1.5t34 -5.5t20 -11.5t11 -18.5l434 -1202q9 -21 9 -35v-2q0 -12 -8 -19t-26.5 -9t-49.5 -2t-49.5 1.5t-28 5t-14 9.5t-8.5 15l-111 315h-538l-106 -311q-3 -9 -8 -15.5t-14.5 -11t-27 -6.5t-45.5 -2 q-29 0 -47.5 2.5t-26.5 9.5q-7 7 -7 19q0 14 9 37zM360 477h450l-226 645h-1zM140 1294zM273 1416q2 7 11 17l224 227q8 9 16.5 14.5t19.5 9t25.5 4.5t35.5 1t35 -1t24.5 -4.5t18 -9t16.5 -14.5l214 -227q9 -10 11 -17.5t-4 -12t-20 -6.5t-36 -2q-30 0 -48 1.5t-29 4 t-17.5 7t-11.5 9.5l-154 173l-159 -168q-8 -8 -16 -13.5t-20 -8.5t-30 -4t-45 -1q-25 0 -38.5 2.5t-19 7t-3.5 11.5z" />
<glyph unicode="&#xc3;" horiz-adv-x="1185" d="M44 62l434 1202q4 11 10.5 18t19 11t32 5.5t49.5 1.5q32 0 53 -1.5t34 -5.5t20 -11.5t11 -18.5l434 -1202q9 -21 9 -35v-2q0 -12 -8 -19t-26.5 -9t-49.5 -2t-49.5 1.5t-28 5t-14 9.5t-8.5 15l-111 315h-538l-106 -311q-3 -9 -8 -15.5t-14.5 -11t-27 -6.5t-45.5 -2 q-29 0 -47.5 2.5t-26.5 9.5q-7 7 -7 19q0 14 9 37zM360 477h450l-226 645h-1zM132 1294zM261 1436q0 48 14 85.5t40 62.5t62.5 38.5t80.5 13.5q53 0 92 -18t71 -39t60.5 -39t61.5 -18q35 0 55.5 20.5t20.5 71.5q0 13 14 17.5t48 4.5q36 0 47 -7.5t11 -32.5 q0 -93 -51.5 -146.5t-145.5 -53.5q-53 0 -92 18t-71.5 39.5t-61 39t-60.5 17.5q-42 0 -59 -25t-17 -67q0 -7 -4.5 -11.5t-12.5 -7t-19.5 -3t-25.5 -0.5q-36 0 -47 8t-11 32z" />
<glyph unicode="&#xc4;" horiz-adv-x="1185" d="M44 62l434 1202q4 11 10.5 18t19 11t32 5.5t49.5 1.5q32 0 53 -1.5t34 -5.5t20 -11.5t11 -18.5l434 -1202q9 -21 9 -35v-2q0 -12 -8 -19t-26.5 -9t-49.5 -2t-49.5 1.5t-28 5t-14 9.5t-8.5 15l-111 315h-538l-106 -311q-3 -9 -8 -15.5t-14.5 -11t-27 -6.5t-45.5 -2 q-29 0 -47.5 2.5t-26.5 9.5q-7 7 -7 19q0 14 9 37zM360 477h450l-226 645h-1zM162 1294zM294 1527q0 56 20.5 76.5t76.5 20.5t76.5 -20t20.5 -75q0 -56 -21 -77t-77 -21t-76 20.5t-20 75.5zM707 1527q0 56 21 76.5t76 20.5q57 0 77 -20t20 -75q0 -56 -20.5 -77t-77.5 -21 q-55 0 -75.5 20.5t-20.5 75.5z" />
<glyph unicode="&#xc5;" horiz-adv-x="1185" d="M44 62l434 1202q4 11 10.5 18t19 11t32 5.5t49.5 1.5q32 0 53 -1.5t34 -5.5t20 -11.5t11 -18.5l434 -1202q9 -21 9 -35v-2q0 -12 -8 -19t-26.5 -9t-49.5 -2t-49.5 1.5t-28 5t-14 9.5t-8.5 15l-111 315h-538l-106 -311q-3 -9 -8 -15.5t-14.5 -11t-27 -6.5t-45.5 -2 q-29 0 -47.5 2.5t-26.5 9.5q-7 7 -7 19q0 14 9 37zM360 477h450l-226 645h-1zM262 1294zM394 1544q0 43 13.5 78t40.5 59.5t65.5 38.5t87.5 14q97 0 149 -48.5t52 -134.5q0 -42 -14.5 -77t-41.5 -60t-65.5 -39.5t-86.5 -14.5q-51 0 -88.5 13.5t-62.5 37.5t-37 58t-12 75z M505 1551q0 -46 21.5 -73t73.5 -27q46 0 68 26.5t22 67.5q0 42 -21.5 70.5t-70.5 28.5q-46 0 -69.5 -25t-23.5 -68z" />
<glyph unicode="&#xc6;" horiz-adv-x="1563" d="M-52 20q0 7 3.5 17t11.5 25l652 1195q6 12 14.5 19.5t21.5 11t32.5 5t48.5 1.5h680q8 0 14.5 -4t11 -13t6.5 -22.5t2 -33.5q0 -18 -2 -31.5t-6.5 -22t-11 -12.5t-14.5 -4h-506v-407h434q9 0 15.5 -4t10.5 -13t6.5 -22.5t2.5 -32.5t-2.5 -32t-6.5 -22t-10.5 -13t-15.5 -4 h-434v-458h514q7 0 13.5 -4t11 -12.5t6.5 -22t2 -33.5q0 -18 -2 -31.5t-6.5 -22.5t-11 -13t-13.5 -4h-621q-24 0 -44 15.5t-20 54.5v246h-446l-154 -288q-5 -10 -11 -16.5t-17.5 -10.5t-30 -5.5t-47.5 -1.5q-21 0 -36 1t-25.5 3.5t-15 8t-4.5 13.5zM354 454h381v697h-6z" />
<glyph unicode="&#xc7;" horiz-adv-x="1092" d="M97 630q0 161 41.5 287t116.5 213.5t179.5 133.5t231.5 46q56 0 109 -10.5t98 -26.5t80 -37t48.5 -34.5t17.5 -20.5t6.5 -16.5t4 -22.5t1.5 -31q0 -20 -2 -34t-6 -23.5t-9.5 -14t-13.5 -4.5q-14 0 -39 19.5t-64.5 43t-96 43t-135.5 19.5q-86 0 -156.5 -34.5 t-120.5 -101.5t-77.5 -163.5t-27.5 -220.5q0 -123 26.5 -217.5t76 -158t121.5 -96t163 -32.5q73 0 131.5 18.5t100 42.5t67.5 43t41 19q7 0 12 -3t8 -11.5t4.5 -23.5t1.5 -38q0 -16 -1 -28t-3.5 -21t-6.5 -16t-14 -17t-42 -30.5t-77.5 -39.5t-92.5 -30t-89 -14l27 -61 q22 -45 31 -74.5t9 -55.5q0 -38 -14 -68t-39.5 -50.5t-61.5 -31.5t-81 -11q-35 0 -66 4.5t-54 9.5t-31 9t-11.5 10t-5 15t-1.5 24q0 31 6.5 41.5t21.5 10.5h123q33 0 51 13.5t18 40.5q0 13 -6 32.5t-16 41.5l-46 102q-89 10 -172 49t-150.5 116.5t-106 198t-38.5 277.5z" />
<glyph unicode="&#xc8;" horiz-adv-x="1000" d="M172 70v1154q0 39 20.5 54.5t43.5 15.5h614q8 0 14.5 -4t10.5 -13t6.5 -22.5t2.5 -33.5q0 -18 -2.5 -31.5t-6.5 -22t-10.5 -12.5t-14.5 -4h-506v-406h434q8 0 14.5 -4.5t11 -12.5t6.5 -22t2 -33q0 -18 -2 -31t-6.5 -21t-11 -11.5t-14.5 -3.5h-434v-463h513q8 0 14.5 -4 t11.5 -12.5t7 -22t2 -33.5q0 -18 -2 -31.5t-7 -22.5t-11.5 -13t-14.5 -4h-621q-23 0 -43.5 15.5t-20.5 54.5zM69 1294zM201.5 1657q-2.5 9 4.5 16t24.5 11.5t47.5 4.5q25 0 42.5 -1.5t30.5 -5.5t24 -11t22 -20l188 -213q9 -11 11.5 -19t-2.5 -13.5t-18.5 -8t-36.5 -2.5 q-21 0 -35 1.5t-25 5t-19.5 9t-18.5 15.5l-226 212q-11 10 -13.5 19z" />
<glyph unicode="&#xc9;" horiz-adv-x="1000" d="M172 70v1154q0 39 20.5 54.5t43.5 15.5h614q8 0 14.5 -4t10.5 -13t6.5 -22.5t2.5 -33.5q0 -18 -2.5 -31.5t-6.5 -22t-10.5 -12.5t-14.5 -4h-506v-406h434q8 0 14.5 -4.5t11 -12.5t6.5 -22t2 -33q0 -18 -2 -31t-6.5 -21t-11 -11.5t-14.5 -3.5h-434v-463h513q8 0 14.5 -4 t11.5 -12.5t7 -22t2 -33.5q0 -18 -2 -31.5t-7 -22.5t-11.5 -13t-14.5 -4h-621q-23 0 -43.5 15.5t-20.5 54.5zM321 1294zM454 1419q2 8 11 19l189 213q11 13 21.5 20t23.5 11t31 5.5t43 1.5q30 0 47 -4.5t24 -11.5t4.5 -16t-11.5 -19l-227 -212q-10 -10 -18.5 -15.5t-19.5 -9 t-25.5 -5t-35.5 -1.5q-23 0 -36 2.5t-18 8t-3 13.5z" />
<glyph unicode="&#xca;" horiz-adv-x="1000" d="M172 70v1154q0 39 20.5 54.5t43.5 15.5h614q8 0 14.5 -4t10.5 -13t6.5 -22.5t2.5 -33.5q0 -18 -2.5 -31.5t-6.5 -22t-10.5 -12.5t-14.5 -4h-506v-406h434q8 0 14.5 -4.5t11 -12.5t6.5 -22t2 -33q0 -18 -2 -31t-6.5 -21t-11 -11.5t-14.5 -3.5h-434v-463h513q8 0 14.5 -4 t11.5 -12.5t7 -22t2 -33.5q0 -18 -2 -31.5t-7 -22.5t-11.5 -13t-14.5 -4h-621q-23 0 -43.5 15.5t-20.5 54.5zM70 1294zM203 1416q2 7 11 17l224 227q8 9 16.5 14.5t19.5 9t25.5 4.5t35.5 1t35 -1t24.5 -4.5t18 -9t16.5 -14.5l214 -227q9 -10 11 -17.5t-4 -12t-20 -6.5 t-36 -2q-30 0 -48 1.5t-29 4t-17.5 7t-11.5 9.5l-154 173l-159 -168q-8 -8 -16 -13.5t-20 -8.5t-30 -4t-45 -1q-25 0 -38.5 2.5t-19 7t-3.5 11.5z" />
<glyph unicode="&#xcb;" horiz-adv-x="1000" d="M172 70v1154q0 39 20.5 54.5t43.5 15.5h614q8 0 14.5 -4t10.5 -13t6.5 -22.5t2.5 -33.5q0 -18 -2.5 -31.5t-6.5 -22t-10.5 -12.5t-14.5 -4h-506v-406h434q8 0 14.5 -4.5t11 -12.5t6.5 -22t2 -33q0 -18 -2 -31t-6.5 -21t-11 -11.5t-14.5 -3.5h-434v-463h513q8 0 14.5 -4 t11.5 -12.5t7 -22t2 -33.5q0 -18 -2 -31.5t-7 -22.5t-11.5 -13t-14.5 -4h-621q-23 0 -43.5 15.5t-20.5 54.5zM99 1294zM231 1527q0 56 20.5 76.5t76.5 20.5t76.5 -20t20.5 -75q0 -56 -21 -77t-77 -21t-76 20.5t-20 75.5zM644 1527q0 56 21 76.5t76 20.5q57 0 77 -20t20 -75 q0 -56 -20.5 -77t-77.5 -21q-55 0 -75.5 20.5t-20.5 75.5z" />
<glyph unicode="&#xcc;" horiz-adv-x="516" d="M172 26v1242q0 8 4.5 14t15 9.5t27 6t39.5 2.5q25 0 41.5 -2.5t26.5 -6t14 -9.5t4 -14v-1242q0 -8 -4 -14t-14 -9.5t-26.5 -6t-41.5 -2.5q-24 0 -41 2.5t-27 6t-14 9.5t-4 14zM-182 1294zM-49.5 1657q-2.5 9 4.5 16t24.5 11.5t47.5 4.5q25 0 42.5 -1.5t30.5 -5.5t24 -11 t22 -20l188 -213q9 -11 11.5 -19t-2.5 -13.5t-18.5 -8t-36.5 -2.5q-21 0 -35 1.5t-25 5t-19.5 9t-18.5 15.5l-226 212q-11 10 -13.5 19z" />
<glyph unicode="&#xcd;" horiz-adv-x="516" d="M172 26v1242q0 8 4.5 14t15 9.5t27 6t39.5 2.5q25 0 41.5 -2.5t26.5 -6t14 -9.5t4 -14v-1242q0 -8 -4 -14t-14 -9.5t-26.5 -6t-41.5 -2.5q-24 0 -41 2.5t-27 6t-14 9.5t-4 14zM40 1294zM173 1419q2 8 11 19l189 213q11 13 21.5 20t23.5 11t31 5.5t43 1.5q30 0 47 -4.5 t24 -11.5t4.5 -16t-11.5 -19l-227 -212q-10 -10 -18.5 -15.5t-19.5 -9t-25.5 -5t-35.5 -1.5q-23 0 -36 2.5t-18 8t-3 13.5z" />
<glyph unicode="&#xce;" horiz-adv-x="516" d="M172 26v1242q0 8 4.5 14t15 9.5t27 6t39.5 2.5q25 0 41.5 -2.5t26.5 -6t14 -9.5t4 -14v-1242q0 -8 -4 -14t-14 -9.5t-26.5 -6t-41.5 -2.5q-24 0 -41 2.5t-27 6t-14 9.5t-4 14zM-199 1294zM-66 1416q2 7 11 17l224 227q8 9 16.5 14.5t19.5 9t25.5 4.5t35.5 1t35 -1 t24.5 -4.5t18 -9t16.5 -14.5l214 -227q9 -10 11 -17.5t-4 -12t-20 -6.5t-36 -2q-30 0 -48 1.5t-29 4t-17.5 7t-11.5 9.5l-154 173l-159 -168q-8 -8 -16 -13.5t-20 -8.5t-30 -4t-45 -1q-25 0 -38.5 2.5t-19 7t-3.5 11.5z" />
<glyph unicode="&#xcf;" horiz-adv-x="516" d="M172 26v1242q0 8 4.5 14t15 9.5t27 6t39.5 2.5q25 0 41.5 -2.5t26.5 -6t14 -9.5t4 -14v-1242q0 -8 -4 -14t-14 -9.5t-26.5 -6t-41.5 -2.5q-24 0 -41 2.5t-27 6t-14 9.5t-4 14zM-176 1294zM-44 1527q0 56 20.5 76.5t76.5 20.5t76.5 -20t20.5 -75q0 -56 -21 -77t-77 -21 t-76 20.5t-20 75.5zM369 1527q0 56 21 76.5t76 20.5q57 0 77 -20t20 -75q0 -56 -20.5 -77t-77.5 -21q-55 0 -75.5 20.5t-20.5 75.5z" />
<glyph unicode="&#xd0;" horiz-adv-x="1279" d="M27 672q0 19 2 32.5t6.5 22.5t11 13t14.5 4h130v480q0 39 20 54.5t43 15.5h293q168 0 284.5 -43.5t195 -125t119 -197.5t40.5 -262q0 -168 -43 -293.5t-126 -208t-203 -123.5t-286 -41h-274q-23 0 -43 15.5t-20 54.5v531h-130q-8 0 -14.5 4t-11 12.5t-6.5 22t-2 32.5z M362 144h178q124 0 209 31t141.5 95t85 160.5t28.5 228.5q0 105 -26 195.5t-81 156.5t-140.5 103t-219.5 37h-175v-407h236q7 0 13.5 -4t11 -13t6.5 -22.5t2 -32.5t-2 -32t-6.5 -22t-11 -13t-13.5 -4h-236v-457z" />
<glyph unicode="&#xd1;" horiz-adv-x="1322" d="M172 26v1194q0 40 22 57t48 17h82q29 0 48.5 -5t35 -16.5t30 -32t31.5 -51.5l314 -568q29 -52 56 -101.5t52 -97.5t49.5 -94.5t48.5 -93.5h1q-2 79 -2.5 164.5t-0.5 164.5v702q0 7 4 13t13.5 10.5t25 6.5t40.5 2q22 0 38 -2t25 -6.5t13 -10.5t4 -13v-1194q0 -20 -6.5 -34 t-17 -23t-23.5 -13t-26 -4h-55q-26 0 -45.5 5.5t-37 20t-35 39.5t-38.5 64l-408 736q-32 57 -64.5 119.5t-60.5 121.5h-2q2 -72 3 -147t1 -149v-781q0 -7 -4 -13.5t-13.5 -10t-25 -6t-39.5 -2.5t-39.5 2.5t-24.5 6t-13 10t-4 13.5zM194 1294zM323 1436q0 48 14 85.5t40 62.5 t62.5 38.5t80.5 13.5q53 0 92 -18t71 -39t60.5 -39t61.5 -18q35 0 55.5 20.5t20.5 71.5q0 13 14 17.5t48 4.5q36 0 47 -7.5t11 -32.5q0 -93 -51.5 -146.5t-145.5 -53.5q-53 0 -92 18t-71.5 39.5t-61 39t-60.5 17.5q-42 0 -59 -25t-17 -67q0 -7 -4.5 -11.5t-12.5 -7t-19.5 -3 t-25.5 -0.5q-36 0 -47 8t-11 32z" />
<glyph unicode="&#xd2;" horiz-adv-x="1356" d="M99 640q0 153 37 278t111 212.5t185 135t259 47.5q143 0 249 -43t176.5 -125.5t105 -204t34.5 -278.5t-37 -283t-110.5 -214.5t-184.5 -136t-259 -47.5q-146 0 -252.5 43.5t-176 126.5t-103.5 206t-34 283zM281 652q0 -114 19 -210t64 -165.5t120.5 -108t189.5 -38.5 q113 0 190 42t124 113.5t67 165.5t20 199q0 110 -19.5 204.5t-65 164t-121.5 108.5t-188 39t-188 -42t-123.5 -112t-68 -163.5t-20.5 -196.5zM241 1294zM373.5 1657q-2.5 9 4.5 16t24.5 11.5t47.5 4.5q25 0 42.5 -1.5t30.5 -5.5t24 -11t22 -20l188 -213q9 -11 11.5 -19 t-2.5 -13.5t-18.5 -8t-36.5 -2.5q-21 0 -35 1.5t-25 5t-19.5 9t-18.5 15.5l-226 212q-11 10 -13.5 19z" />
<glyph unicode="&#xd3;" horiz-adv-x="1356" d="M99 640q0 153 37 278t111 212.5t185 135t259 47.5q143 0 249 -43t176.5 -125.5t105 -204t34.5 -278.5t-37 -283t-110.5 -214.5t-184.5 -136t-259 -47.5q-146 0 -252.5 43.5t-176 126.5t-103.5 206t-34 283zM281 652q0 -114 19 -210t64 -165.5t120.5 -108t189.5 -38.5 q113 0 190 42t124 113.5t67 165.5t20 199q0 110 -19.5 204.5t-65 164t-121.5 108.5t-188 39t-188 -42t-123.5 -112t-68 -163.5t-20.5 -196.5zM449 1294zM582 1419q2 8 11 19l189 213q11 13 21.5 20t23.5 11t31 5.5t43 1.5q30 0 47 -4.5t24 -11.5t4.5 -16t-11.5 -19 l-227 -212q-10 -10 -18.5 -15.5t-19.5 -9t-25.5 -5t-35.5 -1.5q-23 0 -36 2.5t-18 8t-3 13.5z" />
<glyph unicode="&#xd4;" horiz-adv-x="1356" d="M99 640q0 153 37 278t111 212.5t185 135t259 47.5q143 0 249 -43t176.5 -125.5t105 -204t34.5 -278.5t-37 -283t-110.5 -214.5t-184.5 -136t-259 -47.5q-146 0 -252.5 43.5t-176 126.5t-103.5 206t-34 283zM281 652q0 -114 19 -210t64 -165.5t120.5 -108t189.5 -38.5 q113 0 190 42t124 113.5t67 165.5t20 199q0 110 -19.5 204.5t-65 164t-121.5 108.5t-188 39t-188 -42t-123.5 -112t-68 -163.5t-20.5 -196.5zM224 1294zM357 1416q2 7 11 17l224 227q8 9 16.5 14.5t19.5 9t25.5 4.5t35.5 1t35 -1t24.5 -4.5t18 -9t16.5 -14.5l214 -227 q9 -10 11 -17.5t-4 -12t-20 -6.5t-36 -2q-30 0 -48 1.5t-29 4t-17.5 7t-11.5 9.5l-154 173l-159 -168q-8 -8 -16 -13.5t-20 -8.5t-30 -4t-45 -1q-25 0 -38.5 2.5t-19 7t-3.5 11.5z" />
<glyph unicode="&#xd5;" horiz-adv-x="1356" d="M99 640q0 153 37 278t111 212.5t185 135t259 47.5q143 0 249 -43t176.5 -125.5t105 -204t34.5 -278.5t-37 -283t-110.5 -214.5t-184.5 -136t-259 -47.5q-146 0 -252.5 43.5t-176 126.5t-103.5 206t-34 283zM281 652q0 -114 19 -210t64 -165.5t120.5 -108t189.5 -38.5 q113 0 190 42t124 113.5t67 165.5t20 199q0 110 -19.5 204.5t-65 164t-121.5 108.5t-188 39t-188 -42t-123.5 -112t-68 -163.5t-20.5 -196.5zM216 1294zM345 1436q0 48 14 85.5t40 62.5t62.5 38.5t80.5 13.5q53 0 92 -18t71 -39t60.5 -39t61.5 -18q35 0 55.5 20.5t20.5 71.5 q0 13 14 17.5t48 4.5q36 0 47 -7.5t11 -32.5q0 -93 -51.5 -146.5t-145.5 -53.5q-53 0 -92 18t-71.5 39.5t-61 39t-60.5 17.5q-42 0 -59 -25t-17 -67q0 -7 -4.5 -11.5t-12.5 -7t-19.5 -3t-25.5 -0.5q-36 0 -47 8t-11 32z" />
<glyph unicode="&#xd6;" horiz-adv-x="1356" d="M99 640q0 153 37 278t111 212.5t185 135t259 47.5q143 0 249 -43t176.5 -125.5t105 -204t34.5 -278.5t-37 -283t-110.5 -214.5t-184.5 -136t-259 -47.5q-146 0 -252.5 43.5t-176 126.5t-103.5 206t-34 283zM281 652q0 -114 19 -210t64 -165.5t120.5 -108t189.5 -38.5 q113 0 190 42t124 113.5t67 165.5t20 199q0 110 -19.5 204.5t-65 164t-121.5 108.5t-188 39t-188 -42t-123.5 -112t-68 -163.5t-20.5 -196.5zM246 1294zM378 1527q0 56 20.5 76.5t76.5 20.5t76.5 -20t20.5 -75q0 -56 -21 -77t-77 -21t-76 20.5t-20 75.5zM791 1527 q0 56 21 76.5t76 20.5q57 0 77 -20t20 -75q0 -56 -20.5 -77t-77.5 -21q-55 0 -75.5 20.5t-20.5 75.5z" />
<glyph unicode="&#xd7;" d="M96 249q0 12 10 23l304 304l-303 303q-5 5 -8 11t-3 13q0 13 10 28t24 28t29 21.5t25 8.5q13 0 24 -11l303 -304l303 303q5 5 11 8t13 3q12 0 27 -10t28 -23.5t22 -29t9 -25.5q0 -6 -2 -12t-8 -11l-304 -304l302 -301q5 -6 8 -12t3 -13q0 -13 -9.5 -28t-24 -28t-29.5 -22 t-25 -9q-6 0 -11.5 3t-11.5 7l-303 304l-303 -303q-6 -5 -12.5 -7.5t-13.5 -2.5q-12 0 -26.5 10t-27.5 23.5t-21.5 29t-8.5 25.5z" />
<glyph unicode="&#xd8;" horiz-adv-x="1359" d="M99 640q0 153 37 278t111 212.5t185.5 135t259.5 47.5q61 0 113 -9.5t102 -27.5l108 221q4 7 11 12t18.5 8t27.5 4t37 1q25 0 39.5 -4t21.5 -10.5t6.5 -16t-6.5 -21.5l-127 -258q54 -40 94 -95t67.5 -124t41.5 -151.5t14 -179.5q0 -157 -37.5 -283t-112.5 -214.5 t-186 -136t-257 -47.5q-62 0 -115 9t-99 26l-111 -222q-3 -6 -10 -11t-18.5 -7.5t-27 -4t-36.5 -1.5q-25 0 -40 3.5t-22 10.5t-6.5 16.5t6.5 20.5l128 259q-55 39 -95.5 94t-67.5 125t-40.5 155t-13.5 186zM278 651q0 -129 27.5 -235t91.5 -177l445 897q-33 16 -72.5 24 t-88.5 8q-113 0 -190 -41.5t-124.5 -112t-68 -164.5t-20.5 -199zM519 159q33 -15 71.5 -23t86.5 -8q114 0 191.5 42t125 113.5t67.5 166.5t20 202q0 125 -27.5 227t-90.5 174z" />
<glyph unicode="&#xd9;" horiz-adv-x="1314" d="M170 465v803q0 8 4 14t14 9.5t26 6t42 2.5q24 0 41 -2.5t26.5 -6t13.5 -9.5t4 -14v-782q0 -90 22 -157t63.5 -111.5t100 -67t131.5 -22.5q75 0 133.5 22t99 66t62 109t21.5 152v791q0 8 4 14t14 9.5t26.5 6t41.5 2.5q24 0 40.5 -2.5t26 -6t14 -9.5t4.5 -14v-790 q0 -118 -34.5 -210.5t-98.5 -156.5t-156 -97t-209 -33q-107 0 -195 31t-151 91.5t-97 151.5t-34 210zM202 1294zM334.5 1657q-2.5 9 4.5 16t24.5 11.5t47.5 4.5q25 0 42.5 -1.5t30.5 -5.5t24 -11t22 -20l188 -213q9 -11 11.5 -19t-2.5 -13.5t-18.5 -8t-36.5 -2.5 q-21 0 -35 1.5t-25 5t-19.5 9t-18.5 15.5l-226 212q-11 10 -13.5 19z" />
<glyph unicode="&#xda;" horiz-adv-x="1314" d="M170 465v803q0 8 4 14t14 9.5t26 6t42 2.5q24 0 41 -2.5t26.5 -6t13.5 -9.5t4 -14v-782q0 -90 22 -157t63.5 -111.5t100 -67t131.5 -22.5q75 0 133.5 22t99 66t62 109t21.5 152v791q0 8 4 14t14 9.5t26.5 6t41.5 2.5q24 0 40.5 -2.5t26 -6t14 -9.5t4.5 -14v-790 q0 -118 -34.5 -210.5t-98.5 -156.5t-156 -97t-209 -33q-107 0 -195 31t-151 91.5t-97 151.5t-34 210zM428 1294zM561 1419q2 8 11 19l189 213q11 13 21.5 20t23.5 11t31 5.5t43 1.5q30 0 47 -4.5t24 -11.5t4.5 -16t-11.5 -19l-227 -212q-10 -10 -18.5 -15.5t-19.5 -9 t-25.5 -5t-35.5 -1.5q-23 0 -36 2.5t-18 8t-3 13.5z" />
<glyph unicode="&#xdb;" horiz-adv-x="1314" d="M170 465v803q0 8 4 14t14 9.5t26 6t42 2.5q24 0 41 -2.5t26.5 -6t13.5 -9.5t4 -14v-782q0 -90 22 -157t63.5 -111.5t100 -67t131.5 -22.5q75 0 133.5 22t99 66t62 109t21.5 152v791q0 8 4 14t14 9.5t26.5 6t41.5 2.5q24 0 40.5 -2.5t26 -6t14 -9.5t4.5 -14v-790 q0 -118 -34.5 -210.5t-98.5 -156.5t-156 -97t-209 -33q-107 0 -195 31t-151 91.5t-97 151.5t-34 210zM196 1294zM329 1416q2 7 11 17l224 227q8 9 16.5 14.5t19.5 9t25.5 4.5t35.5 1t35 -1t24.5 -4.5t18 -9t16.5 -14.5l214 -227q9 -10 11 -17.5t-4 -12t-20 -6.5t-36 -2 q-30 0 -48 1.5t-29 4t-17.5 7t-11.5 9.5l-154 173l-159 -168q-8 -8 -16 -13.5t-20 -8.5t-30 -4t-45 -1q-25 0 -38.5 2.5t-19 7t-3.5 11.5z" />
<glyph unicode="&#xdc;" horiz-adv-x="1314" d="M170 465v803q0 8 4 14t14 9.5t26 6t42 2.5q24 0 41 -2.5t26.5 -6t13.5 -9.5t4 -14v-782q0 -90 22 -157t63.5 -111.5t100 -67t131.5 -22.5q75 0 133.5 22t99 66t62 109t21.5 152v791q0 8 4 14t14 9.5t26.5 6t41.5 2.5q24 0 40.5 -2.5t26 -6t14 -9.5t4.5 -14v-790 q0 -118 -34.5 -210.5t-98.5 -156.5t-156 -97t-209 -33q-107 0 -195 31t-151 91.5t-97 151.5t-34 210zM220 1294zM352 1527q0 56 20.5 76.5t76.5 20.5t76.5 -20t20.5 -75q0 -56 -21 -77t-77 -21t-76 20.5t-20 75.5zM765 1527q0 56 21 76.5t76 20.5q57 0 77 -20t20 -75 q0 -56 -20.5 -77t-77.5 -21q-55 0 -75.5 20.5t-20.5 75.5z" />
<glyph unicode="&#xdd;" horiz-adv-x="998" d="M32 1269v6q0 9 6 14q7 7 26.5 9t52.5 2q30 0 48.5 -2t29.5 -5.5t16.5 -10t10.5 -16.5l179 -372q25 -53 50 -111t51 -117h2q23 57 47.5 113.5t49.5 111.5l180 374q3 10 8.5 17t15 10.5t26.5 5.5t43 2q36 0 56.5 -2.5t28.5 -9.5q6 -5 6 -14q0 -3 -1 -6q-2 -13 -13 -35 l-366 -730v-477q0 -8 -4 -14t-14 -9.5t-27 -6t-41 -2.5q-25 0 -41.5 2.5t-27 6t-14.5 9.5t-4 14v477l-366 730q-11 23 -14 36zM314 1294zM447 1419q2 8 11 19l189 213q11 13 21.5 20t23.5 11t31 5.5t43 1.5q30 0 47 -4.5t24 -11.5t4.5 -16t-11.5 -19l-227 -212 q-10 -10 -18.5 -15.5t-19.5 -9t-25.5 -5t-35.5 -1.5q-23 0 -36 2.5t-18 8t-3 13.5z" />
<glyph unicode="&#xde;" horiz-adv-x="1058" d="M172 22v1249q0 7 4 13t14 10t26.5 6t41.5 2t41.5 -2t26 -6t14 -10t4.5 -13v-195h173q42 0 81.5 -3.5t76.5 -11.5q68 -15 122 -46.5t92 -78t58 -106.5t20 -133q0 -96 -31.5 -174.5t-90 -133.5t-143 -85t-189.5 -30h-169v-252q0 -8 -4.5 -13.5t-14 -9.5t-26 -6t-41.5 -2 t-41.5 2t-26.5 6t-14 9.5t-4 13.5zM344 415h183q62 0 110 20t81.5 55.5t50.5 85t17 107.5q0 94 -44 156t-127 83q-26 8 -55.5 9.5t-53.5 1.5h-162v-518z" />
<glyph unicode="&#xdf;" horiz-adv-x="1080" d="M153 28v957q0 94 25 171t74.5 131t122 83.5t167.5 29.5q91 0 158 -27t111.5 -71t66.5 -101t22 -118q0 -49 -8 -92.5t-23 -82.5t-25.5 -48t-29.5 -9q-46 0 -77 -10.5t-50.5 -27.5t-28.5 -39t-9 -46q0 -48 27 -81.5t67 -60.5t87 -53t87 -61.5t66.5 -84t26.5 -119.5 q0 -62 -22.5 -114.5t-64.5 -90.5t-102.5 -60t-137.5 -22q-30 0 -59.5 5.5t-54 13t-43 16t-26.5 16.5t-12 23t-4 44q0 17 2 29.5t6 20.5t9.5 11.5t11.5 3.5q12 0 25 -8t33 -18t46.5 -18t65.5 -8q38 0 67.5 11.5t50 30t31 44.5t10.5 55q0 38 -15 66t-40.5 50.5t-57.5 42 t-65.5 40t-65.5 44.5t-57.5 55t-40.5 71t-15 94q0 52 17 93.5t47.5 72.5t73 51t92.5 28q11 24 14.5 50.5t3.5 57.5q0 35 -11 70t-35 62t-61 44.5t-89 17.5q-60 0 -102 -20t-67.5 -56t-37 -86.5t-11.5 -109.5v-963q0 -8 -4 -14.5t-13.5 -10.5t-25.5 -6.5t-41 -2.5 q-23 0 -39 2.5t-26 6.5t-13.5 10.5t-3.5 14.5z" />
<glyph unicode="&#xe0;" horiz-adv-x="981" d="M92 255q0 76 31 132t89 93t142 55.5t189 18.5h124v70q0 52 -11 92t-35.5 66.5t-63.5 40t-96 13.5q-61 0 -109.5 -14.5t-85 -32t-61 -32t-36.5 -14.5q-8 0 -14 4t-10.5 12t-6.5 20.5t-2 27.5q0 25 3.5 39.5t17 27.5t46.5 30.5t76 32t94 24t103 9.5q97 0 165 -22t110 -64.5 t61 -105.5t19 -147v-607q0 -12 -8 -18t-22 -9t-41 -3q-26 0 -41.5 3t-22.5 9t-7 18v90q-59 -63 -131.5 -98t-153.5 -35q-71 0 -128.5 18.5t-98 53.5t-63 86t-22.5 116zM261 263q0 -70 44.5 -111.5t124.5 -41.5q65 0 120.5 33t116.5 101v191h-141q-68 0 -118 -11.5t-83 -34 t-48.5 -54t-15.5 -72.5zM109 951zM241 1373.5q-1 8.5 6 15t24.5 10t45.5 3.5q24 0 40.5 -2t27.5 -6t19 -11t16 -18l144 -231q7 -11 9 -19t-3.5 -13t-18 -8t-34.5 -3q-20 0 -33 1.5t-22.5 5t-16.5 9.5t-14 16l-181 233q-8 9 -9 17.5z" />
<glyph unicode="&#xe1;" horiz-adv-x="981" d="M92 255q0 76 31 132t89 93t142 55.5t189 18.5h124v70q0 52 -11 92t-35.5 66.5t-63.5 40t-96 13.5q-61 0 -109.5 -14.5t-85 -32t-61 -32t-36.5 -14.5q-8 0 -14 4t-10.5 12t-6.5 20.5t-2 27.5q0 25 3.5 39.5t17 27.5t46.5 30.5t76 32t94 24t103 9.5q97 0 165 -22t110 -64.5 t61 -105.5t19 -147v-607q0 -12 -8 -18t-22 -9t-41 -3q-26 0 -41.5 3t-22.5 9t-7 18v90q-59 -63 -131.5 -98t-153.5 -35q-71 0 -128.5 18.5t-98 53.5t-63 86t-22.5 116zM261 263q0 -70 44.5 -111.5t124.5 -41.5q65 0 120.5 33t116.5 101v191h-141q-68 0 -118 -11.5t-83 -34 t-48.5 -54t-15.5 -72.5zM282 951zM414.5 1115q1.5 8 8.5 19l145 231q6 11 14 18t19.5 11t28.5 6t41 2q28 0 45.5 -3.5t24.5 -10t6 -15t-9 -17.5l-181 -233q-8 -10 -14.5 -16t-15 -9.5t-22 -5t-33.5 -1.5q-22 0 -35 3t-18.5 8t-4 13z" />
<glyph unicode="&#xe2;" horiz-adv-x="981" d="M92 255q0 76 31 132t89 93t142 55.5t189 18.5h124v70q0 52 -11 92t-35.5 66.5t-63.5 40t-96 13.5q-61 0 -109.5 -14.5t-85 -32t-61 -32t-36.5 -14.5q-8 0 -14 4t-10.5 12t-6.5 20.5t-2 27.5q0 25 3.5 39.5t17 27.5t46.5 30.5t76 32t94 24t103 9.5q97 0 165 -22t110 -64.5 t61 -105.5t19 -147v-607q0 -12 -8 -18t-22 -9t-41 -3q-26 0 -41.5 3t-22.5 9t-7 18v90q-59 -63 -131.5 -98t-153.5 -35q-71 0 -128.5 18.5t-98 53.5t-63 86t-22.5 116zM261 263q0 -70 44.5 -111.5t124.5 -41.5q65 0 120.5 33t116.5 101v191h-141q-68 0 -118 -11.5t-83 -34 t-48.5 -54t-15.5 -72.5zM93 951zM226 1121.5q4 10.5 16 25.5l165 229q5 8 12 12.5t17.5 7.5t26 4.5t37.5 1.5q21 0 35 -1.5t24 -5t16.5 -8t11.5 -11.5l165 -229q11 -15 15 -25.5t-0.5 -17t-19.5 -10t-41 -3.5q-21 0 -33.5 1.5t-20.5 4.5t-13 9t-12 15l-130 180l-130 -180 q-6 -10 -12 -15.5t-14.5 -8.5t-21 -4.5t-31.5 -1.5q-27 0 -41.5 3.5t-19.5 10t-1 17z" />
<glyph unicode="&#xe3;" horiz-adv-x="981" d="M92 255q0 76 31 132t89 93t142 55.5t189 18.5h124v70q0 52 -11 92t-35.5 66.5t-63.5 40t-96 13.5q-61 0 -109.5 -14.5t-85 -32t-61 -32t-36.5 -14.5q-8 0 -14 4t-10.5 12t-6.5 20.5t-2 27.5q0 25 3.5 39.5t17 27.5t46.5 30.5t76 32t94 24t103 9.5q97 0 165 -22t110 -64.5 t61 -105.5t19 -147v-607q0 -12 -8 -18t-22 -9t-41 -3q-26 0 -41.5 3t-22.5 9t-7 18v90q-59 -63 -131.5 -98t-153.5 -35q-71 0 -128.5 18.5t-98 53.5t-63 86t-22.5 116zM261 263q0 -70 44.5 -111.5t124.5 -41.5q65 0 120.5 33t116.5 101v191h-141q-68 0 -118 -11.5t-83 -34 t-48.5 -54t-15.5 -72.5zM30 951zM159 1138q0 99 50 158t143 59q54 0 93 -20.5t70.5 -45t59 -45.5t59.5 -21q36 0 54.5 26.5t18.5 78.5q0 16 10.5 21.5t45.5 5.5q37 0 49 -7.5t12 -33.5q0 -106 -52 -162t-141 -56q-37 0 -66 9.5t-53 24.5t-44 32t-39.5 32t-38.5 24.5t-41 9.5 q-40 0 -56 -29t-16 -77q0 -7 -2 -12.5t-8.5 -8.5t-19 -4t-31.5 -1q-16 0 -27 1.5t-17.5 6t-9.5 13t-3 21.5z" />
<glyph unicode="&#xe4;" horiz-adv-x="981" d="M92 255q0 76 31 132t89 93t142 55.5t189 18.5h124v70q0 52 -11 92t-35.5 66.5t-63.5 40t-96 13.5q-61 0 -109.5 -14.5t-85 -32t-61 -32t-36.5 -14.5q-8 0 -14 4t-10.5 12t-6.5 20.5t-2 27.5q0 25 3.5 39.5t17 27.5t46.5 30.5t76 32t94 24t103 9.5q97 0 165 -22t110 -64.5 t61 -105.5t19 -147v-607q0 -12 -8 -18t-22 -9t-41 -3q-26 0 -41.5 3t-22.5 9t-7 18v90q-59 -63 -131.5 -98t-153.5 -35q-71 0 -128.5 18.5t-98 53.5t-63 86t-22.5 116zM261 263q0 -70 44.5 -111.5t124.5 -41.5q65 0 120.5 33t116.5 101v191h-141q-68 0 -118 -11.5t-83 -34 t-48.5 -54t-15.5 -72.5zM93 951zM225 1214q0 56 19.5 76t73.5 20q55 0 74 -20t19 -73q0 -55 -20 -75t-74 -20t-73 19.5t-19 72.5zM579 1214q0 56 19.5 76t73.5 20q55 0 74 -20t19 -73q0 -55 -20 -75t-74 -20t-73 19.5t-19 72.5z" />
<glyph unicode="&#xe5;" horiz-adv-x="981" d="M92 255q0 76 31 132t89 93t142 55.5t189 18.5h124v70q0 52 -11 92t-35.5 66.5t-63.5 40t-96 13.5q-61 0 -109.5 -14.5t-85 -32t-61 -32t-36.5 -14.5q-8 0 -14 4t-10.5 12t-6.5 20.5t-2 27.5q0 25 3.5 39.5t17 27.5t46.5 30.5t76 32t94 24t103 9.5q97 0 165 -22t110 -64.5 t61 -105.5t19 -147v-607q0 -12 -8 -18t-22 -9t-41 -3q-26 0 -41.5 3t-22.5 9t-7 18v90q-59 -63 -131.5 -98t-153.5 -35q-71 0 -128.5 18.5t-98 53.5t-63 86t-22.5 116zM261 263q0 -70 44.5 -111.5t124.5 -41.5q65 0 120.5 33t116.5 101v191h-141q-68 0 -118 -11.5t-83 -34 t-48.5 -54t-15.5 -72.5zM166 951zM298 1251q0 40 13 74t38.5 58.5t63 37.5t85.5 13q92 0 142.5 -47.5t50.5 -128.5q0 -41 -14 -74.5t-40 -58.5t-63 -38.5t-84 -13.5q-49 0 -85.5 13t-60 36.5t-35 56t-11.5 72.5zM404 1257q0 -44 20.5 -71.5t71.5 -27.5q44 0 66.5 26.5 t22.5 66.5q0 41 -21.5 69.5t-70.5 28.5q-44 0 -66.5 -25.5t-22.5 -66.5z" />
<glyph unicode="&#xe6;" horiz-adv-x="1583" d="M92 254q0 77 31 133t89 93t142 55.5t189 18.5h124v70q0 52 -11 92t-35.5 66.5t-63.5 40t-96 13.5q-61 0 -109.5 -14.5t-85.5 -32t-62 -32t-37 -14.5q-8 0 -13.5 4t-9.5 12t-6 20.5t-2 27.5q0 25 3.5 39.5t17 27.5t46.5 30.5t76 32t94 24t103 9.5q64 0 113 -11t85.5 -31 t62 -48.5t41.5 -62.5q48 74 130 113.5t186 39.5q103 0 177 -34t121.5 -92t70 -135.5t22.5 -164.5v-30q0 -39 -19.5 -55.5t-43.5 -16.5h-591q0 -75 15.5 -135t50.5 -103t91.5 -66t138.5 -23q63 0 112.5 10.5t86 23.5t60.5 23.5t35 10.5q7 0 12 -3.5t8.5 -10.5t5 -19.5 t1.5 -30.5q0 -13 -1 -22.5t-2.5 -17t-5 -13.5t-9 -11.5t-32.5 -18t-70 -24.5t-99 -21.5t-120 -9.5q-69 0 -124.5 11t-100 33t-79 53t-60.5 71q-33 -39 -71 -70t-81 -53.5t-90 -33.5t-99 -11q-71 0 -128.5 18.5t-98 53.5t-63 86t-22.5 115zM261 263q0 -70 44.5 -111.5 t124.5 -41.5q65 0 127 37t130 120q-11 34 -16.5 80t-5.5 88h-139q-68 0 -118 -11.5t-83 -34t-48.5 -54t-15.5 -72.5zM831 563h489q1 65 -13.5 116t-44.5 87t-75 55.5t-104 19.5q-61 0 -107 -23t-77.5 -61t-48 -88.5t-19.5 -105.5z" />
<glyph unicode="&#xe7;" horiz-adv-x="866" d="M90 464q0 133 32.5 228.5t89 156.5t133 90.5t165.5 29.5q43 0 83.5 -8t74.5 -21t60.5 -30t38.5 -29t16.5 -19t7.5 -16.5t4 -21.5t1 -30q0 -39 -9 -54.5t-22 -15.5q-15 0 -34.5 16.5t-49.5 36.5t-72.5 36.5t-100.5 16.5q-119 0 -182.5 -91.5t-63.5 -265.5 q0 -87 16.5 -152.5t48.5 -109.5t78.5 -65.5t106.5 -21.5q57 0 100 18t74.5 39.5t53 39t33.5 17.5q7 0 12 -4t8.5 -13.5t5 -24t1.5 -34.5q0 -17 -1 -29.5t-3.5 -21t-6 -15t-16 -19t-44 -32t-78.5 -37t-106 -24.5l26 -58q21 -45 30.5 -74.5t9.5 -55.5q0 -38 -14 -68t-40 -50.5 t-62 -31.5t-81 -11q-34 0 -65.5 4.5t-54 9.5t-31 9t-12 10t-5 15t-1.5 24q0 31 6.5 41.5t21.5 10.5h124q32 0 50 13.5t18 40.5q0 13 -6 32.5t-16 41.5l-47 104q-102 19 -170 80.5t-102 160.5t-34 232z" />
<glyph unicode="&#xe8;" horiz-adv-x="1019" d="M93 471q0 116 30 208.5t86.5 157t136.5 99t179 34.5q106 0 180.5 -34t122.5 -91.5t70.5 -135t22.5 -165.5v-30q0 -39 -19.5 -55.5t-44.5 -16.5h-590q0 -75 15 -135t50 -103t91 -66t137 -23q64 0 114 10.5t86.5 23.5t60 23.5t35.5 10.5q7 0 12.5 -3.5t8.5 -10.5t4.5 -19.5 t1.5 -30.5q0 -13 -1 -22.5t-2.5 -17t-5 -13.5t-9 -11.5t-32.5 -18t-70 -24.5t-99.5 -21.5t-120.5 -9.5q-111 0 -194.5 31t-140.5 92t-86 153t-29 214zM267 563h488v12q1 121 -57 192q-60 74 -180 74q-61 0 -107 -23t-77 -61t-48 -88.5t-19 -105.5zM136 951zM268 1373.5 q-1 8.5 6 15t24.5 10t45.5 3.5q24 0 40.5 -2t27.5 -6t19 -11t16 -18l144 -231q7 -11 9 -19t-3.5 -13t-18 -8t-34.5 -3q-20 0 -33 1.5t-22.5 5t-16.5 9.5t-14 16l-181 233q-8 9 -9 17.5z" />
<glyph unicode="&#xe9;" horiz-adv-x="1019" d="M93 471q0 116 30 208.5t86.5 157t136.5 99t179 34.5q106 0 180.5 -34t122.5 -91.5t70.5 -135t22.5 -165.5v-30q0 -39 -19.5 -55.5t-44.5 -16.5h-590q0 -75 15 -135t50 -103t91 -66t137 -23q64 0 114 10.5t86.5 23.5t60 23.5t35.5 10.5q7 0 12.5 -3.5t8.5 -10.5t4.5 -19.5 t1.5 -30.5q0 -13 -1 -22.5t-2.5 -17t-5 -13.5t-9 -11.5t-32.5 -18t-70 -24.5t-99.5 -21.5t-120.5 -9.5q-111 0 -194.5 31t-140.5 92t-86 153t-29 214zM267 563h488v12q1 121 -57 192q-60 74 -180 74q-61 0 -107 -23t-77 -61t-48 -88.5t-19 -105.5zM307 951zM439.5 1115 q1.5 8 8.5 19l145 231q6 11 14 18t19.5 11t28.5 6t41 2q28 0 45.5 -3.5t24.5 -10t6 -15t-9 -17.5l-181 -233q-8 -10 -14.5 -16t-15 -9.5t-22 -5t-33.5 -1.5q-22 0 -35 3t-18.5 8t-4 13z" />
<glyph unicode="&#xea;" horiz-adv-x="1019" d="M93 471q0 116 30 208.5t86.5 157t136.5 99t179 34.5q106 0 180.5 -34t122.5 -91.5t70.5 -135t22.5 -165.5v-30q0 -39 -19.5 -55.5t-44.5 -16.5h-590q0 -75 15 -135t50 -103t91 -66t137 -23q64 0 114 10.5t86.5 23.5t60 23.5t35.5 10.5q7 0 12.5 -3.5t8.5 -10.5t4.5 -19.5 t1.5 -30.5q0 -13 -1 -22.5t-2.5 -17t-5 -13.5t-9 -11.5t-32.5 -18t-70 -24.5t-99.5 -21.5t-120.5 -9.5q-111 0 -194.5 31t-140.5 92t-86 153t-29 214zM267 563h488v12q1 121 -57 192q-60 74 -180 74q-61 0 -107 -23t-77 -61t-48 -88.5t-19 -105.5zM113 951zM246 1121.5 q4 10.5 16 25.5l165 229q5 8 12 12.5t17.5 7.5t26 4.5t37.5 1.5q21 0 35 -1.5t24 -5t16.5 -8t11.5 -11.5l165 -229q11 -15 15 -25.5t-0.5 -17t-19.5 -10t-41 -3.5q-21 0 -33.5 1.5t-20.5 4.5t-13 9t-12 15l-130 180l-130 -180q-6 -10 -12 -15.5t-14.5 -8.5t-21 -4.5 t-31.5 -1.5q-27 0 -41.5 3.5t-19.5 10t-1 17z" />
<glyph unicode="&#xeb;" horiz-adv-x="1019" d="M93 471q0 116 30 208.5t86.5 157t136.5 99t179 34.5q106 0 180.5 -34t122.5 -91.5t70.5 -135t22.5 -165.5v-30q0 -39 -19.5 -55.5t-44.5 -16.5h-590q0 -75 15 -135t50 -103t91 -66t137 -23q64 0 114 10.5t86.5 23.5t60 23.5t35.5 10.5q7 0 12.5 -3.5t8.5 -10.5t4.5 -19.5 t1.5 -30.5q0 -13 -1 -22.5t-2.5 -17t-5 -13.5t-9 -11.5t-32.5 -18t-70 -24.5t-99.5 -21.5t-120.5 -9.5q-111 0 -194.5 31t-140.5 92t-86 153t-29 214zM267 563h488v12q1 121 -57 192q-60 74 -180 74q-61 0 -107 -23t-77 -61t-48 -88.5t-19 -105.5zM115 951zM247 1214 q0 56 19.5 76t73.5 20q55 0 74 -20t19 -73q0 -55 -20 -75t-74 -20t-73 19.5t-19 72.5zM601 1214q0 56 19.5 76t73.5 20q55 0 74 -20t19 -73q0 -55 -20 -75t-74 -20t-73 19.5t-19 72.5z" />
<glyph unicode="&#xec;" horiz-adv-x="470" d="M153 25v900q0 8 3.5 13.5t13 10t25.5 6t40 1.5q25 0 41 -1.5t25 -6t13 -10t4 -13.5v-900q0 -8 -4 -13.5t-13 -9.5t-25 -6t-41 -2q-24 0 -40 2t-25.5 6t-13 9.5t-3.5 13.5zM-146 951zM-14 1373.5q-1 8.5 6 15t24.5 10t45.5 3.5q24 0 40.5 -2t27.5 -6t19 -11t16 -18 l144 -231q7 -11 9 -19t-3.5 -13t-18 -8t-34.5 -3q-20 0 -33 1.5t-22.5 5t-16.5 9.5t-14 16l-181 233q-8 9 -9 17.5z" />
<glyph unicode="&#xed;" horiz-adv-x="470" d="M153 25v900q0 8 3.5 13.5t13 10t25.5 6t40 1.5q25 0 41 -1.5t25 -6t13 -10t4 -13.5v-900q0 -8 -4 -13.5t-13 -9.5t-25 -6t-41 -2q-24 0 -40 2t-25.5 6t-13 9.5t-3.5 13.5zM15 951zM147.5 1115q1.5 8 8.5 19l145 231q6 11 14 18t19.5 11t28.5 6t41 2q28 0 45.5 -3.5 t24.5 -10t6 -15t-9 -17.5l-181 -233q-8 -10 -14.5 -16t-15 -9.5t-22 -5t-33.5 -1.5q-22 0 -35 3t-18.5 8t-4 13z" />
<glyph unicode="&#xee;" horiz-adv-x="470" d="M153 25v900q0 8 3.5 13.5t13 10t25.5 6t40 1.5q25 0 41 -1.5t25 -6t13 -10t4 -13.5v-900q0 -8 -4 -13.5t-13 -9.5t-25 -6t-41 -2q-24 0 -40 2t-25.5 6t-13 9.5t-3.5 13.5zM-166 951zM-33 1121.5q4 10.5 16 25.5l165 229q5 8 12 12.5t17.5 7.5t26 4.5t37.5 1.5 q21 0 35 -1.5t24 -5t16.5 -8t11.5 -11.5l165 -229q11 -15 15 -25.5t-0.5 -17t-19.5 -10t-41 -3.5q-21 0 -33.5 1.5t-20.5 4.5t-13 9t-12 15l-130 180l-130 -180q-6 -10 -12 -15.5t-14.5 -8.5t-21 -4.5t-31.5 -1.5q-27 0 -41.5 3.5t-19.5 10t-1 17z" />
<glyph unicode="&#xef;" horiz-adv-x="470" d="M153 25v900q0 8 3.5 13.5t13 10t25.5 6t40 1.5q25 0 41 -1.5t25 -6t13 -10t4 -13.5v-900q0 -8 -4 -13.5t-13 -9.5t-25 -6t-41 -2q-24 0 -40 2t-25.5 6t-13 9.5t-3.5 13.5zM-142 951zM-10 1214q0 55 19.5 75.5t71.5 20.5t71.5 -20t19.5 -73q0 -54 -20 -74.5t-72 -20.5 t-71 19.5t-19 72.5zM301 1214q0 55 19.5 75.5t70.5 20.5q53 0 72.5 -20t19.5 -73q0 -54 -20 -74.5t-72 -20.5t-71 19.5t-19 72.5z" />
<glyph unicode="&#xf0;" horiz-adv-x="1076" d="M97 464q0 124 27 218t77 158t122 97t161 33q35 0 67 -7.5t63.5 -21.5t61.5 -35.5t59 -50.5q-8 25 -21 57t-32 68.5t-46.5 77t-65.5 84.5l-274 -70q-10 -2 -17 -1t-11.5 6.5t-6.5 17t-2 30.5q0 16 2 28t6.5 19.5t12 12t16.5 6.5l190 49q-11 12 -24.5 27t-28.5 30.5 t-29.5 31t-26.5 28.5q-7 7 -8 13.5t6.5 10.5t27 7t54.5 3q31 0 52 -2t35 -5.5t23 -9t17 -12.5q27 -31 47.5 -53.5t23.5 -26.5l253 64q10 3 17 1.5t11.5 -6.5t7 -16.5t2.5 -30.5q0 -16 -2.5 -28t-7 -20t-11.5 -12.5t-18 -6.5l-171 -44q54 -71 93 -139.5t63.5 -141.5 t36 -153.5t11.5 -176.5q0 -141 -27 -251t-82.5 -185.5t-140.5 -115t-200 -39.5q-111 0 -186 38t-121 103.5t-66 153.5t-20 188zM267 482q0 -70 11 -135t37.5 -115t70.5 -80t109 -30q68 0 119.5 25t86 77.5t52 133t17.5 193.5q0 34 -1 61t-3 46q-39 43 -75 75.5t-68.5 53.5 t-63 31t-61.5 10q-58 0 -101.5 -27.5t-72.5 -74.5t-43 -110t-14 -134z" />
<glyph unicode="&#xf1;" horiz-adv-x="1076" d="M153 25v900q0 8 3 13.5t12 10t23 6t37 1.5q22 0 36.5 -1.5t22.5 -6t11.5 -10t3.5 -13.5v-119q76 85 151.5 124.5t152.5 39.5q90 0 151.5 -30.5t99.5 -81.5t54.5 -119.5t16.5 -164.5v-549q0 -8 -4 -13.5t-13 -9.5t-25 -6t-40 -2q-25 0 -41 2t-25 6t-13 9.5t-4 13.5v527 q0 77 -12 124t-35 81t-59.5 52t-84.5 18q-62 0 -124 -44t-130 -129v-629q0 -8 -4 -13.5t-13 -9.5t-25 -6t-41 -2q-24 0 -40 2t-25.5 6t-13 9.5t-3.5 13.5zM78 951zM207 1138q0 99 50 158t143 59q54 0 93 -20.5t70.5 -45t59 -45.5t59.5 -21q36 0 54.5 26.5t18.5 78.5 q0 16 10.5 21.5t45.5 5.5q37 0 49 -7.5t12 -33.5q0 -106 -52 -162t-141 -56q-37 0 -66 9.5t-53 24.5t-44 32t-39.5 32t-38.5 24.5t-41 9.5q-40 0 -56 -29t-16 -77q0 -7 -2 -12.5t-8.5 -8.5t-19 -4t-31.5 -1q-16 0 -27 1.5t-17.5 6t-9.5 13t-3 21.5z" />
<glyph unicode="&#xf2;" horiz-adv-x="1080" d="M90 467q0 110 28.5 202.5t86 159.5t143.5 104t201 37q111 0 193.5 -33t137.5 -96t82.5 -153t27.5 -203q0 -110 -29 -202.5t-86.5 -159.5t-144 -104.5t-200.5 -37.5q-111 0 -193.5 33t-137.5 96t-82 153t-27 204zM263 478q0 -74 13.5 -139t45 -113.5t84.5 -77t132 -28.5 q72 0 125 26t87 73t50 112t16 143q0 73 -13.5 138t-44.5 114t-84 77.5t-132 28.5q-73 0 -125.5 -26t-86.5 -73.5t-50.5 -112.5t-16.5 -142zM152 951zM284 1373.5q-1 8.5 6 15t24.5 10t45.5 3.5q24 0 40.5 -2t27.5 -6t19 -11t16 -18l144 -231q7 -11 9 -19t-3.5 -13t-18 -8 t-34.5 -3q-20 0 -33 1.5t-22.5 5t-16.5 9.5t-14 16l-181 233q-8 9 -9 17.5z" />
<glyph unicode="&#xf3;" horiz-adv-x="1080" d="M90 467q0 110 28.5 202.5t86 159.5t143.5 104t201 37q111 0 193.5 -33t137.5 -96t82.5 -153t27.5 -203q0 -110 -29 -202.5t-86.5 -159.5t-144 -104.5t-200.5 -37.5q-111 0 -193.5 33t-137.5 96t-82 153t-27 204zM263 478q0 -74 13.5 -139t45 -113.5t84.5 -77t132 -28.5 q72 0 125 26t87 73t50 112t16 143q0 73 -13.5 138t-44.5 114t-84 77.5t-132 28.5q-73 0 -125.5 -26t-86.5 -73.5t-50.5 -112.5t-16.5 -142zM336 951zM468.5 1115q1.5 8 8.5 19l145 231q6 11 14 18t19.5 11t28.5 6t41 2q28 0 45.5 -3.5t24.5 -10t6 -15t-9 -17.5l-181 -233 q-8 -10 -14.5 -16t-15 -9.5t-22 -5t-33.5 -1.5q-22 0 -35 3t-18.5 8t-4 13z" />
<glyph unicode="&#xf4;" horiz-adv-x="1080" d="M90 467q0 110 28.5 202.5t86 159.5t143.5 104t201 37q111 0 193.5 -33t137.5 -96t82.5 -153t27.5 -203q0 -110 -29 -202.5t-86.5 -159.5t-144 -104.5t-200.5 -37.5q-111 0 -193.5 33t-137.5 96t-82 153t-27 204zM263 478q0 -74 13.5 -139t45 -113.5t84.5 -77t132 -28.5 q72 0 125 26t87 73t50 112t16 143q0 73 -13.5 138t-44.5 114t-84 77.5t-132 28.5q-73 0 -125.5 -26t-86.5 -73.5t-50.5 -112.5t-16.5 -142zM136 951zM269 1121.5q4 10.5 16 25.5l165 229q5 8 12 12.5t17.5 7.5t26 4.5t37.5 1.5q21 0 35 -1.5t24 -5t16.5 -8t11.5 -11.5 l165 -229q11 -15 15 -25.5t-0.5 -17t-19.5 -10t-41 -3.5q-21 0 -33.5 1.5t-20.5 4.5t-13 9t-12 15l-130 180l-130 -180q-6 -10 -12 -15.5t-14.5 -8.5t-21 -4.5t-31.5 -1.5q-27 0 -41.5 3.5t-19.5 10t-1 17z" />
<glyph unicode="&#xf5;" horiz-adv-x="1080" d="M90 467q0 110 28.5 202.5t86 159.5t143.5 104t201 37q111 0 193.5 -33t137.5 -96t82.5 -153t27.5 -203q0 -110 -29 -202.5t-86.5 -159.5t-144 -104.5t-200.5 -37.5q-111 0 -193.5 33t-137.5 96t-82 153t-27 204zM263 478q0 -74 13.5 -139t45 -113.5t84.5 -77t132 -28.5 q72 0 125 26t87 73t50 112t16 143q0 73 -13.5 138t-44.5 114t-84 77.5t-132 28.5q-73 0 -125.5 -26t-86.5 -73.5t-50.5 -112.5t-16.5 -142zM79 951zM208 1138q0 99 50 158t143 59q54 0 93 -20.5t70.5 -45t59 -45.5t59.5 -21q36 0 54.5 26.5t18.5 78.5q0 16 10.5 21.5 t45.5 5.5q37 0 49 -7.5t12 -33.5q0 -106 -52 -162t-141 -56q-37 0 -66 9.5t-53 24.5t-44 32t-39.5 32t-38.5 24.5t-41 9.5q-40 0 -56 -29t-16 -77q0 -7 -2 -12.5t-8.5 -8.5t-19 -4t-31.5 -1q-16 0 -27 1.5t-17.5 6t-9.5 13t-3 21.5z" />
<glyph unicode="&#xf6;" horiz-adv-x="1080" d="M90 467q0 110 28.5 202.5t86 159.5t143.5 104t201 37q111 0 193.5 -33t137.5 -96t82.5 -153t27.5 -203q0 -110 -29 -202.5t-86.5 -159.5t-144 -104.5t-200.5 -37.5q-111 0 -193.5 33t-137.5 96t-82 153t-27 204zM263 478q0 -74 13.5 -139t45 -113.5t84.5 -77t132 -28.5 q72 0 125 26t87 73t50 112t16 143q0 73 -13.5 138t-44.5 114t-84 77.5t-132 28.5q-73 0 -125.5 -26t-86.5 -73.5t-50.5 -112.5t-16.5 -142zM139 951zM271 1214q0 56 19.5 76t73.5 20q55 0 74 -20t19 -73q0 -55 -20 -75t-74 -20t-73 19.5t-19 72.5zM625 1214q0 56 19.5 76 t73.5 20q55 0 74 -20t19 -73q0 -55 -20 -75t-74 -20t-73 19.5t-19 72.5z" />
<glyph unicode="&#xf7;" d="M43 577q0 18 2 31.5t6 21.5t10.5 12t14.5 4h849q8 0 14.5 -4t11 -12t7 -21.5t2.5 -31.5q0 -19 -2.5 -32.5t-7 -22t-11 -12.5t-14.5 -4h-849q-8 0 -14.5 4t-10.5 12.5t-6 22t-2 32.5zM385 204q0 34 6 58t19.5 38.5t35.5 20.5t56 6q33 0 55.5 -6t36 -20.5t19 -38.5t5.5 -58 q0 -33 -5.5 -55.5t-19 -36.5t-36 -20.5t-55.5 -6.5q-34 0 -56 6.5t-35.5 20.5t-19.5 36.5t-6 55.5zM385 944q0 33 6 56.5t19.5 38t35.5 21t56 6.5q33 0 55.5 -6.5t36 -21t19 -38t5.5 -56.5q0 -34 -5.5 -56.5t-19 -37t-36 -21t-55.5 -6.5q-34 0 -56 6.5t-35.5 21t-19.5 37 t-6 56.5z" />
<glyph unicode="&#xf8;" horiz-adv-x="1084" d="M90 467q0 111 28.5 203t86.5 159t144.5 104t202.5 37q37 0 75 -5t72 -15l65 137q8 15 26 21t53 6q46 0 56.5 -10t-1.5 -33l-81 -171q45 -29 78.5 -72t55.5 -97t32.5 -116t10.5 -130q0 -110 -29 -202.5t-87 -159.5t-144.5 -104.5t-201.5 -37.5q-43 0 -81 5.5t-66 15.5 l-68 -141q-7 -16 -26.5 -21.5t-53.5 -5.5q-44 0 -54.5 10t0.5 33l84 174q-47 31 -80.5 75.5t-55 98.5t-31.5 115.5t-10 126.5zM254 476q0 -83 19 -156t67 -121l301 625q-20 7 -46 11t-54 4q-74 0 -128 -26.5t-89.5 -74.5t-52.5 -115t-17 -147zM445 129q20 -9 46 -12.5 t52 -3.5q74 0 128 26t89.5 74t52.5 115t17 148q0 40 -4.5 79t-15 75.5t-26.5 67t-40 54.5z" />
<glyph unicode="&#xf9;" horiz-adv-x="1076" d="M148 379v546q0 8 3.5 13.5t13.5 10t26 6t40 1.5t40 -1.5t25.5 -6t13.5 -10t4 -13.5v-524q0 -79 11.5 -126.5t35 -81t59.5 -52t84 -18.5q62 0 123.5 44t130.5 129v629q0 8 3.5 13.5t13.5 10t25.5 6t40.5 1.5q24 0 40 -1.5t25 -6t13.5 -10t4.5 -13.5v-900q0 -8 -3.5 -13.5 t-12.5 -9.5t-23.5 -6t-35.5 -2q-23 0 -37.5 2t-23 6t-11.5 9.5t-3 13.5v119q-77 -85 -152 -124t-152 -39q-90 0 -151.5 30t-99.5 81.5t-54.5 120t-16.5 166.5zM142 951zM274 1373.5q-1 8.5 6 15t24.5 10t45.5 3.5q24 0 40.5 -2t27.5 -6t19 -11t16 -18l144 -231q7 -11 9 -19 t-3.5 -13t-18 -8t-34.5 -3q-20 0 -33 1.5t-22.5 5t-16.5 9.5t-14 16l-181 233q-8 9 -9 17.5z" />
<glyph unicode="&#xfa;" horiz-adv-x="1076" d="M148 379v546q0 8 3.5 13.5t13.5 10t26 6t40 1.5t40 -1.5t25.5 -6t13.5 -10t4 -13.5v-524q0 -79 11.5 -126.5t35 -81t59.5 -52t84 -18.5q62 0 123.5 44t130.5 129v629q0 8 3.5 13.5t13.5 10t25.5 6t40.5 1.5q24 0 40 -1.5t25 -6t13.5 -10t4.5 -13.5v-900q0 -8 -3.5 -13.5 t-12.5 -9.5t-23.5 -6t-35.5 -2q-23 0 -37.5 2t-23 6t-11.5 9.5t-3 13.5v119q-77 -85 -152 -124t-152 -39q-90 0 -151.5 30t-99.5 81.5t-54.5 120t-16.5 166.5zM334 951zM466.5 1115q1.5 8 8.5 19l145 231q6 11 14 18t19.5 11t28.5 6t41 2q28 0 45.5 -3.5t24.5 -10t6 -15 t-9 -17.5l-181 -233q-8 -10 -14.5 -16t-15 -9.5t-22 -5t-33.5 -1.5q-22 0 -35 3t-18.5 8t-4 13z" />
<glyph unicode="&#xfb;" horiz-adv-x="1076" d="M148 379v546q0 8 3.5 13.5t13.5 10t26 6t40 1.5t40 -1.5t25.5 -6t13.5 -10t4 -13.5v-524q0 -79 11.5 -126.5t35 -81t59.5 -52t84 -18.5q62 0 123.5 44t130.5 129v629q0 8 3.5 13.5t13.5 10t25.5 6t40.5 1.5q24 0 40 -1.5t25 -6t13.5 -10t4.5 -13.5v-900q0 -8 -3.5 -13.5 t-12.5 -9.5t-23.5 -6t-35.5 -2q-23 0 -37.5 2t-23 6t-11.5 9.5t-3 13.5v119q-77 -85 -152 -124t-152 -39q-90 0 -151.5 30t-99.5 81.5t-54.5 120t-16.5 166.5zM134 951zM267 1121.5q4 10.5 16 25.5l165 229q5 8 12 12.5t17.5 7.5t26 4.5t37.5 1.5q21 0 35 -1.5t24 -5 t16.5 -8t11.5 -11.5l165 -229q11 -15 15 -25.5t-0.5 -17t-19.5 -10t-41 -3.5q-21 0 -33.5 1.5t-20.5 4.5t-13 9t-12 15l-130 180l-130 -180q-6 -10 -12 -15.5t-14.5 -8.5t-21 -4.5t-31.5 -1.5q-27 0 -41.5 3.5t-19.5 10t-1 17z" />
<glyph unicode="&#xfc;" horiz-adv-x="1076" d="M148 379v546q0 8 3.5 13.5t13.5 10t26 6t40 1.5t40 -1.5t25.5 -6t13.5 -10t4 -13.5v-524q0 -79 11.5 -126.5t35 -81t59.5 -52t84 -18.5q62 0 123.5 44t130.5 129v629q0 8 3.5 13.5t13.5 10t25.5 6t40.5 1.5q24 0 40 -1.5t25 -6t13.5 -10t4.5 -13.5v-900q0 -8 -3.5 -13.5 t-12.5 -9.5t-23.5 -6t-35.5 -2q-23 0 -37.5 2t-23 6t-11.5 9.5t-3 13.5v119q-77 -85 -152 -124t-152 -39q-90 0 -151.5 30t-99.5 81.5t-54.5 120t-16.5 166.5zM137 951zM269 1214q0 56 19.5 76t73.5 20q55 0 74 -20t19 -73q0 -55 -20 -75t-74 -20t-73 19.5t-19 72.5z M623 1214q0 56 19.5 76t73.5 20q55 0 74 -20t19 -73q0 -55 -20 -75t-74 -20t-73 19.5t-19 72.5z" />
<glyph unicode="&#xfd;" horiz-adv-x="927" d="M34 925q0 12 8 19t26 9.5t48 2.5t47 -1.5t27 -5.5t14.5 -11.5t9.5 -20.5l257 -722h3l248 726q6 19 14.5 24.5t25.5 8t49 2.5q28 0 46 -2.5t26.5 -9.5t8.5 -19t-6 -30l-323 -895l-120 -331q-6 -16 -30.5 -24.5t-74.5 -8.5q-26 0 -42 2.5t-24.5 8.5t-9.5 16t5 24l124 313 q-9 4 -17 13t-11 19l-321 860q-8 21 -8 33zM266 951zM398.5 1115q1.5 8 8.5 19l145 231q6 11 14 18t19.5 11t28.5 6t41 2q28 0 45.5 -3.5t24.5 -10t6 -15t-9 -17.5l-181 -233q-8 -10 -14.5 -16t-15 -9.5t-22 -5t-33.5 -1.5q-22 0 -35 3t-18.5 8t-4 13z" />
<glyph unicode="&#xfe;" horiz-adv-x="1076" d="M153 -332v1693q0 8 3.5 14t13 10t25.5 6t40 2q25 0 41 -2t25 -6t13 -10t4 -14v-539q38 38 73.5 65.5t71 46t73.5 27.5t81 9q98 0 167.5 -38.5t113 -104t63.5 -153.5t20 -187q0 -117 -25 -210.5t-74.5 -159.5t-122 -101t-166.5 -35q-40 0 -74.5 8t-67.5 25t-65 43t-68 61 v-450q0 -8 -4 -14t-13 -10t-25 -6t-41 -2q-24 0 -40 2t-25.5 6t-13 10t-3.5 14zM318 294q68 -83 130 -127t129 -44q62 0 105.5 30t71.5 79.5t40.5 111.5t12.5 124q0 69 -10.5 134t-36.5 115t-69 80.5t-108 30.5q-31 0 -62 -9.5t-63 -30t-66.5 -54t-73.5 -82.5v-358z" />
<glyph unicode="&#xff;" horiz-adv-x="927" d="M34 925q0 12 8 19t26 9.5t48 2.5t47 -1.5t27 -5.5t14.5 -11.5t9.5 -20.5l257 -722h3l248 726q6 19 14.5 24.5t25.5 8t49 2.5q28 0 46 -2.5t26.5 -9.5t8.5 -19t-6 -30l-323 -895l-120 -331q-6 -16 -30.5 -24.5t-74.5 -8.5q-26 0 -42 2.5t-24.5 8.5t-9.5 16t5 24l124 313 q-9 4 -17 13t-11 19l-321 860q-8 21 -8 33zM63 951zM195 1214q0 56 19.5 76t73.5 20q55 0 74 -20t19 -73q0 -55 -20 -75t-74 -20t-73 19.5t-19 72.5zM549 1214q0 56 19.5 76t73.5 20q55 0 74 -20t19 -73q0 -55 -20 -75t-74 -20t-73 19.5t-19 72.5z" />
<glyph unicode="&#x131;" horiz-adv-x="470" d="M153 25v900q0 8 3.5 13.5t13 10t25.5 6t40 1.5q25 0 41 -1.5t25 -6t13 -10t4 -13.5v-900q0 -8 -4 -13.5t-13 -9.5t-25 -6t-41 -2q-24 0 -40 2t-25.5 6t-13 9.5t-3.5 13.5z" />
<glyph unicode="&#x152;" horiz-adv-x="1775" d="M99 640q0 154 37 278.5t111 212t185 135t259 47.5q74 0 144.5 -17t123.5 -44q6 24 22 33t34 9h609q8 0 14.5 -4t10.5 -13t6.5 -22.5t2.5 -33.5q0 -18 -2.5 -31.5t-6.5 -22t-10.5 -12.5t-14.5 -4h-506v-407h435q7 0 13.5 -4t11 -13t6.5 -22.5t2 -32.5t-2 -32t-6.5 -22 t-11 -13t-13.5 -4h-435v-458h514q7 0 13.5 -4t11.5 -12.5t7 -22t2 -33.5q0 -18 -2 -31.5t-7 -22.5t-11.5 -13t-13.5 -4h-616q-18 0 -36 10.5t-22 37.5q-58 -33 -132 -50t-161 -17q-146 0 -252.5 43t-176 126t-103.5 206.5t-34 283.5zM281 652q0 -114 19 -209.5t64 -165.5 t120.5 -108.5t189.5 -38.5q86 0 153.5 23t118.5 62v870q-55 37 -120 59t-145 22q-112 0 -188 -41.5t-123.5 -112t-68 -163.5t-20.5 -197z" />
<glyph unicode="&#x153;" horiz-adv-x="1740" d="M90 468q0 110 28.5 202t86 159t143.5 104t201 37q131 0 217 -49t140 -144q54 97 140 145t201 48q105 0 179.5 -34t122.5 -91.5t70.5 -135t22.5 -165.5v-30q0 -39 -19.5 -55.5t-43.5 -16.5h-591q0 -75 15.5 -135t50.5 -103t91 -66t137 -23q63 0 113 10.5t87 23.5 t60.5 23.5t34.5 10.5q7 0 12.5 -3.5t9 -10.5t5 -19.5t1.5 -30.5q0 -13 -1 -22t-2.5 -16.5t-5 -14t-9.5 -12t-33 -18t-70.5 -25t-99 -21.5t-120.5 -9q-132 0 -224.5 47.5t-146.5 147.5q-54 -95 -144 -145t-219 -50q-110 0 -192.5 33t-138 96t-82.5 153t-27 205zM263 478 q0 -74 13.5 -139t45 -114t84.5 -77t132 -28q72 0 125 26t87 73t50 111.5t16 141.5q0 74 -13.5 139.5t-44.5 114.5t-84 77.5t-132 28.5q-73 0 -125.5 -26t-86.5 -73t-50.5 -112.5t-16.5 -142.5zM988 563h489q3 130 -58 204t-180 74q-61 0 -107 -23t-77 -61t-47.5 -88.5 t-19.5 -105.5z" />
<glyph unicode="&#x178;" horiz-adv-x="998" d="M32 1269v6q0 9 6 14q7 7 26.5 9t52.5 2q30 0 48.5 -2t29.5 -5.5t16.5 -10t10.5 -16.5l179 -372q25 -53 50 -111t51 -117h2q23 57 47.5 113.5t49.5 111.5l180 374q3 10 8.5 17t15 10.5t26.5 5.5t43 2q36 0 56.5 -2.5t28.5 -9.5q6 -5 6 -14q0 -3 -1 -6q-2 -13 -13 -35 l-366 -730v-477q0 -8 -4 -14t-14 -9.5t-27 -6t-41 -2.5q-25 0 -41.5 2.5t-27 6t-14.5 9.5t-4 14v477l-366 730q-11 23 -14 36zM65 1294zM197 1527q0 56 20.5 76.5t76.5 20.5t76.5 -20t20.5 -75q0 -56 -21 -77t-77 -21t-76 20.5t-20 75.5zM610 1527q0 56 21 76.5t76 20.5 q57 0 77 -20t20 -75q0 -56 -20.5 -77t-77.5 -21q-55 0 -75.5 20.5t-20.5 75.5z" />
<glyph unicode="&#x2c6;" horiz-adv-x="809" d="M0 951zM133 1121.5q4 10.5 16 25.5l165 229q5 8 12 12.5t17.5 7.5t26 4.5t37.5 1.5q21 0 35 -1.5t24 -5t16.5 -8t11.5 -11.5l165 -229q11 -15 15 -25.5t-0.5 -17t-19.5 -10t-41 -3.5q-21 0 -33.5 1.5t-20.5 4.5t-13 9t-12 15l-130 180l-130 -180q-6 -10 -12 -15.5 t-14.5 -8.5t-21 -4.5t-31.5 -1.5q-27 0 -41.5 3.5t-19.5 10t-1 17z" />
<glyph unicode="&#x2da;" horiz-adv-x="657" d="M0 951zM132 1251q0 40 13 74t38.5 58.5t63 37.5t85.5 13q92 0 142.5 -47.5t50.5 -128.5q0 -41 -14 -74.5t-40 -58.5t-63 -38.5t-84 -13.5q-49 0 -85.5 13t-60 36.5t-35 56t-11.5 72.5zM238 1257q0 -44 20.5 -71.5t71.5 -27.5q44 0 66.5 26.5t22.5 66.5q0 41 -21.5 69.5 t-70.5 28.5q-44 0 -66.5 -25.5t-22.5 -66.5z" />
<glyph unicode="&#x2dc;" horiz-adv-x="922" d="M0 951zM129 1138q0 99 50 158t143 59q54 0 93 -20.5t70.5 -45t59 -45.5t59.5 -21q36 0 54.5 26.5t18.5 78.5q0 16 10.5 21.5t45.5 5.5q37 0 49 -7.5t12 -33.5q0 -106 -52 -162t-141 -56q-37 0 -66 9.5t-53 24.5t-44 32t-39.5 32t-38.5 24.5t-41 9.5q-40 0 -56 -29 t-16 -77q0 -7 -2 -12.5t-8.5 -8.5t-19 -4t-31.5 -1q-16 0 -27 1.5t-17.5 6t-9.5 13t-3 21.5z" />
<glyph unicode="&#x3bc;" horiz-adv-x="1126" d="M153 -332v1257q0 8 3.5 13.5t13 10t25.5 6t40 1.5q25 0 41 -1.5t25 -6t13 -10t4 -13.5v-566q0 -111 49 -173t142 -62q62 0 123.5 43.5t130.5 128.5v629q0 8 4 13.5t13 10t25 6t41 1.5q24 0 40 -1.5t25 -6t13 -10t4 -13.5v-654q0 -41 4 -69.5t13 -45.5t24.5 -25t39.5 -8 q16 0 28 2t20.5 4t15 4t13.5 2q4 0 7.5 -2.5t6 -8.5t3.5 -17.5t1 -30.5q0 -31 -3.5 -47t-10.5 -22t-17.5 -10.5t-26.5 -7.5t-32.5 -5t-36.5 -2q-84 0 -134 36.5t-66 123.5q-73 -84 -145 -120.5t-142 -36.5q-58 0 -104.5 16t-77.5 55q2 -22 3.5 -47.5t3.5 -52t2.5 -52.5 t0.5 -48v-188q0 -8 -4 -14t-13 -10t-25 -6t-41 -2q-24 0 -40 2t-25.5 6t-13 10t-3.5 14z" />
<glyph unicode="&#x2000;" horiz-adv-x="867" />
<glyph unicode="&#x2001;" horiz-adv-x="1734" />
<glyph unicode="&#x2002;" horiz-adv-x="867" />
<glyph unicode="&#x2003;" horiz-adv-x="1734" />
<glyph unicode="&#x2004;" horiz-adv-x="578" />
<glyph unicode="&#x2005;" horiz-adv-x="433" />
<glyph unicode="&#x2006;" horiz-adv-x="289" />
<glyph unicode="&#x2007;" horiz-adv-x="289" />
<glyph unicode="&#x2008;" horiz-adv-x="216" />
<glyph unicode="&#x2009;" horiz-adv-x="346" />
<glyph unicode="&#x200a;" horiz-adv-x="96" />
<glyph unicode="&#x2011;" horiz-adv-x="627" d="M69 505q0 38 9 53t27 15h418q8 0 14.5 -3t11 -11.5t7 -21.5t2.5 -32q0 -39 -9 -54t-26 -15h-418q-18 0 -27 15.5t-9 53.5z" />
<glyph unicode="&#x2012;" horiz-adv-x="627" d="M69 505q0 38 9 53t27 15h418q8 0 14.5 -3t11 -11.5t7 -21.5t2.5 -32q0 -39 -9 -54t-26 -15h-418q-18 0 -27 15.5t-9 53.5z" />
<glyph unicode="&#x2013;" d="M-10 566q0 37 9 54.5t28 17.5h961q9 0 16.5 -4.5t12 -13t7 -22t2.5 -32.5q0 -38 -9.5 -55.5t-28.5 -17.5h-961q-19 0 -28 17.5t-9 55.5z" />
<glyph unicode="&#x2014;" horiz-adv-x="1854" d="M149 566q0 38 10.5 55.5t28.5 17.5h1479q17 0 27.5 -17t10.5 -56q0 -41 -11.5 -57t-26.5 -16h-1479q-15 0 -27 16t-12 57z" />
<glyph unicode="&#x2018;" horiz-adv-x="511" d="M140 967q0 30 3 56t10 49t18.5 46t28.5 47l137 206q5 8 11 13t15.5 8.5t22 5.5t30.5 2t29.5 -1.5t17 -5t5.5 -9.5t-4 -14l-132 -276v-127q0 -27 -6 -43t-18 -24.5t-30 -11.5t-43 -3t-43 3t-29.5 11.5t-17 24.5t-5.5 43z" />
<glyph unicode="&#x2019;" horiz-adv-x="511" d="M42.5 901q-0.5 6 3.5 15l133 275v127q0 26 5.5 42t17.5 25t30 12t44 3q25 0 43 -3t29.5 -12t17 -25t5.5 -42q0 -31 -3 -56.5t-10 -49t-18.5 -46t-28.5 -46.5l-137 -206q-5 -7 -11.5 -13t-16 -9.5t-22 -5t-31.5 -1.5q-17 0 -28.5 1.5t-16.5 5t-5.5 9.5z" />
<glyph unicode="&#x201a;" horiz-adv-x="511" d="M42.5 -274q-0.5 6 3.5 14l133 275v128q0 27 5.5 43t17.5 24t30 11t44 3q25 0 43 -3t29.5 -11t17 -24t5.5 -43q0 -31 -3 -57t-10 -49t-18.5 -45.5t-28.5 -47.5l-137 -206q-5 -7 -11.5 -12t-16 -9t-22 -5.5t-31.5 -1.5q-17 0 -28.5 1.5t-16.5 5t-5.5 9.5z" />
<glyph unicode="&#x201c;" horiz-adv-x="857" d="M136 969q0 30 3 55.5t9.5 48.5t18 45.5t27.5 47.5l135 205q5 8 11 13t15 8.5t21.5 5.5t30.5 2q16 0 26.5 -1.5t16 -5t5.5 -9.5t-4 -14l-131 -275v-126q0 -26 -5.5 -42t-17 -25t-29 -12t-41.5 -3t-41 3t-28 12t-16.5 25t-5.5 42zM494 969q0 30 3 55.5t9.5 48.5t18 45.5 t27.5 47.5l135 205q5 8 11 13t15 8.5t21.5 5.5t30.5 2q16 0 27 -1.5t16 -5t5.5 -9.5t-4.5 -14l-131 -275v-126q0 -26 -5.5 -42t-17 -25t-29 -12t-41.5 -3t-41 3t-28 12t-16.5 25t-5.5 42z" />
<glyph unicode="&#x201d;" horiz-adv-x="857" d="M43.5 904q-0.5 6 3.5 15l132 273v127q0 26 5 42t16.5 24.5t29 11.5t42.5 3q24 0 41 -3t28 -11.5t16.5 -24.5t5.5 -42q0 -31 -3 -56.5t-9.5 -48.5t-18 -45.5t-27.5 -46.5l-136 -205q-4 -8 -10.5 -13.5t-15.5 -9t-21 -5.5t-30 -2q-16 0 -27 1.5t-16 5.5t-5.5 10zM402 904 q0 6 3 15l132 273v127q0 26 5 42t16.5 24.5t29 11.5t42.5 3q23 0 40.5 -3t28.5 -11.5t16.5 -24.5t5.5 -42q0 -31 -3 -56.5t-9.5 -48.5t-18 -45.5t-27.5 -46.5l-136 -205q-4 -8 -10.5 -13.5t-15.5 -9t-21 -5.5t-30 -2q-16 0 -26.5 1.5t-16 5.5t-5.5 10z" />
<glyph unicode="&#x201e;" horiz-adv-x="857" d="M43.5 -273q-0.5 6 3.5 14l132 274v127q0 26 5 42t16.5 24.5t29 11.5t42.5 3q24 0 41 -3t28 -11.5t16.5 -24.5t5.5 -42q0 -31 -3 -56.5t-9.5 -48.5t-18 -45.5t-27.5 -47.5l-136 -204q-4 -8 -10.5 -13t-15.5 -8.5t-21 -5.5t-30 -2q-16 0 -27 1.5t-16 5t-5.5 9.5zM402 -273 q0 6 3 14l132 274v127q0 26 5 42t16.5 24.5t29 11.5t42.5 3q23 0 40.5 -3t28.5 -11.5t16.5 -24.5t5.5 -42q0 -31 -3 -56.5t-9.5 -48.5t-18 -45.5t-27.5 -47.5l-136 -204q-4 -8 -10.5 -13t-15.5 -8.5t-21 -5.5t-30 -2q-16 0 -26.5 1.5t-16 5t-5.5 9.5z" />
<glyph unicode="&#x2022;" d="M193 642q0 67 24.5 124.5t67.5 101t101.5 68t123.5 24.5t123.5 -24.5t101.5 -67.5t67.5 -101t24.5 -124q0 -65 -24.5 -123.5t-68 -101.5t-101.5 -67.5t-124 -24.5q-65 0 -123.5 24t-101.5 67t-67 101.5t-24 123.5z" />
<glyph unicode="&#x2026;" horiz-adv-x="1414" d="M150 105q0 70 23.5 93.5t83.5 23.5q58 0 81 -23t23 -91q0 -70 -23.5 -93.5t-83.5 -23.5q-58 0 -81 23t-23 91zM602 105q0 70 23.5 93.5t82.5 23.5t81.5 -23t22.5 -91q0 -70 -23 -93.5t-83 -23.5q-58 0 -81 23t-23 91zM1053 105q0 70 23.5 93.5t83.5 23.5q58 0 81 -23 t23 -91q0 -70 -23.5 -93.5t-83.5 -23.5q-58 0 -81 23t-23 91z" />
<glyph unicode="&#x202f;" horiz-adv-x="346" />
<glyph unicode="&#x2039;" horiz-adv-x="694" d="M116 523q0 20 15 42l216 347q5 8 10.5 13t14.5 8t22.5 4t35.5 1q26 0 41 -3t22 -9t6.5 -14t-6.5 -19l-212 -373l214 -373q5 -10 5.5 -18.5t-6 -15t-21.5 -9.5t-40 -3q-22 0 -36 1t-23 4t-14 8t-10 13l-220 353q-14 23 -14 43z" />
<glyph unicode="&#x203a;" horiz-adv-x="694" d="M192.5 910.5q-0.5 8.5 6 15t21.5 9.5t40 3q22 0 36 -1t23 -4t14 -8t11 -13l219 -353q14 -23 14 -43t-15 -43l-216 -346q-5 -8 -10.5 -13t-14.5 -8t-22.5 -4t-35.5 -1q-26 0 -41 3t-22 9t-7 14t7 18l212 374l-214 373q-5 10 -5.5 18.5z" />
<glyph unicode="&#x2044;" horiz-adv-x="689" d="M-179.5 -5.5q1.5 9.5 9.5 21.5l900 1289q5 8 12 13.5t17.5 8.5t24 4.5t34.5 1.5t34.5 -3.5t19.5 -10.5t4.5 -17t-9.5 -21l-901 -1289q-5 -9 -12 -13.5t-17 -8t-24 -5t-34 -1.5q-22 0 -35.5 4t-19 10.5t-4 16z" />
<glyph unicode="&#x205f;" horiz-adv-x="433" />
<glyph unicode="&#x2081;" horiz-adv-x="504" d="M35 404q0 14 1 24t3.5 16.5t7 11.5t11.5 10l186 111q3 1 8.5 3t13 3t18.5 1.5t27 0.5q20 0 32.5 -1.5t19 -3.5t8.5 -5.5t2 -8.5v-750q0 -7 -4 -11.5t-13 -7t-22.5 -4t-33.5 -1.5t-33 1t-21 4t-11.5 7.5t-3.5 11.5v628l-149 -80q-14 -7 -23 -8t-14 4t-7.5 16t-2.5 28z" />
<glyph unicode="&#x2082;" horiz-adv-x="688" d="M75 -147q0 16 1.5 27t5.5 20.5t10.5 18t16.5 19.5l153 150q50 48 80.5 87t47.5 71t22 59t5 51q0 47 -32 77t-91 30q-37 0 -66.5 -10t-52 -21t-38.5 -21t-24 -10q-4 0 -8.5 3t-7.5 10.5t-4.5 19t-1.5 27.5q0 22 3 35.5t12 22.5t30 21.5t50.5 23t65.5 17.5t76 7 q63 0 110.5 -16t78.5 -44t46.5 -67t15.5 -84q0 -35 -6.5 -69.5t-29.5 -77t-66.5 -94.5t-116.5 -120l-106 -101h334q12 0 19.5 -15t7.5 -43q0 -29 -6 -44t-20 -15h-470q-11 0 -19.5 2t-14 8t-8 17t-2.5 28z" />
<glyph unicode="&#x2083;" horiz-adv-x="685" d="M65 -95q0 22 5 36t17 14q6 0 22 -9t41 -19t58.5 -18.5t74.5 -8.5q76 0 117 30t41 85q0 29 -12 52.5t-36.5 39.5t-60.5 24t-84 8h-72q-8 0 -13 3t-8.5 10t-5.5 18t-2 27q0 14 2 24t5.5 16t8.5 9t12 3h69q83 0 127 33t44 92q0 46 -30 73t-91 27q-36 0 -67.5 -9.5t-56 -21 t-41 -21t-22.5 -9.5q-11 0 -15.5 12t-4.5 41q0 13 1 22t2.5 15.5t4 11t8.5 10.5t28 17.5t51.5 21.5t65.5 17t74 7q62 0 108.5 -14t77 -40t45 -61.5t14.5 -78.5q0 -72 -39 -122t-116 -66v-2q40 -3 74.5 -17.5t60.5 -39t40 -56.5t14 -70q0 -56 -21.5 -100t-61 -74t-97 -46 t-127.5 -16q-47 0 -85 6t-65.5 14.5t-43.5 17t-20 12t-7 9t-4.5 13t-2.5 19t-1 29.5z" />
<glyph unicode="&#x20ac;" horiz-adv-x="1038" d="M42 490q0 17 2 29.5t6 20.5t9.5 11.5t13.5 3.5h108q-1 19 -1.5 39.5t-0.5 40.5q0 24 0.5 49t1.5 46h-108q-15 0 -23 15t-8 51q0 17 2.5 29.5t6.5 20t10 11.5t14 4h121q19 102 56.5 185t96 141.5t139 90.5t186.5 32q47 0 92.5 -8t83 -20t64 -26.5t37.5 -23.5t15.5 -17 t7.5 -18t4.5 -24t1.5 -33q0 -18 -1.5 -30.5t-5 -20.5t-8.5 -12t-13 -4q-15 0 -36.5 14.5t-53.5 32t-77.5 32t-108.5 14.5q-66 0 -116 -20.5t-86.5 -60t-60 -96t-36.5 -128.5h306q8 0 14 -4t10.5 -11.5t7 -20t2.5 -29.5q0 -36 -9 -51t-25 -15h-321q-2 -21 -3 -42.5t-1 -46.5 q0 -22 1 -43t3 -43h321q8 0 14 -3.5t10.5 -11.5t7 -20.5t2.5 -29.5q0 -35 -9 -50.5t-25 -15.5h-309q11 -70 34.5 -125t62 -92.5t91 -56.5t122.5 -19q65 0 111.5 16t79.5 35t53.5 35t33.5 16q7 0 11.5 -3.5t8 -12.5t4.5 -24t1 -38q0 -35 -6 -52t-18 -28.5t-38 -27.5t-64 -30 t-88 -23.5t-108 -9.5q-102 0 -182.5 29t-140 85t-97.5 138t-55 188h-115q-16 0 -24.5 15.5t-8.5 50.5z" />
<glyph unicode="&#x2122;" horiz-adv-x="1444" d="M63 1240q0 14 1.5 24.5t5 17t7.5 9.5t10 3h403q5 0 9 -3t7 -9.5t4.5 -17t1.5 -24.5q0 -13 -1.5 -22.5t-4.5 -16t-7 -9.5t-9 -3h-141v-454q0 -5 -3 -8t-10 -6t-18.5 -4.5t-29.5 -1.5t-30 1.5t-19 4.5t-10.5 6t-3.5 8v454h-138q-6 0 -10 3t-7.5 9.5t-5 16t-1.5 22.5z M616 735v512q0 22 13 34.5t32 12.5h76q20 0 34 -3.5t24.5 -11.5t18 -21.5t14.5 -33.5l125 -344l133 344q13 35 31.5 52.5t53.5 17.5h74q20 0 32.5 -12.5t12.5 -34.5v-512q0 -5 -2.5 -8t-8.5 -6t-17 -4.5t-28 -1.5q-18 0 -28.5 1.5t-17 4.5t-8.5 6t-2 8v446h-2l-167 -450 q-2 -8 -17.5 -12t-42.5 -4q-24 0 -38 4t-17 12l-163 450h-2v-446q0 -5 -2.5 -8t-9 -6t-17 -4.5t-26.5 -1.5q-18 0 -29 1.5t-17.5 4.5t-9 6t-2.5 8z" />
<glyph unicode="&#xe000;" horiz-adv-x="955" d="M0 955h955v-955h-955v955z" />
<glyph unicode="&#xfb01;" horiz-adv-x="1084" d="M37 882q0 19 2 32t6 21.5t10 12t14 3.5h127v97q0 93 18 159.5t53.5 109.5t88 63.5t120.5 20.5q22 0 44 -2t40 -6t31.5 -8.5t18.5 -9.5t8 -10.5t5 -13.5t3 -20t1 -29q0 -32 -5 -46t-17 -14q-8 0 -16.5 3.5t-21.5 7.5t-31.5 7.5t-46.5 3.5q-69 0 -98 -51t-29 -163v-99h519 q26 0 38.5 -13.5t12.5 -37.5v-875q0 -8 -4 -13.5t-13.5 -9.5t-25.5 -6t-40 -2t-40 2t-25.5 6t-13.5 9.5t-4 13.5v789h-404v-789q0 -8 -4 -13.5t-13.5 -9.5t-25.5 -6t-40 -2t-40 2t-25.5 6t-13.5 9.5t-4 13.5v789h-127q-16 0 -24 16t-8 52zM749 1228q0 28 5 46.5t16.5 31 t31 17t48.5 4.5q30 0 49.5 -4.5t30.5 -17t15.5 -31t4.5 -46.5t-4.5 -47t-15.5 -30.5t-30.5 -16.5t-49.5 -5q-29 0 -48.5 5t-31 16.5t-16.5 30.5t-5 47z" />
<glyph unicode="&#xfb02;" horiz-adv-x="1084" d="M37 882q0 19 2 32t6 21.5t10 12t14 3.5h127v96q0 93 21 160t64.5 109.5t110.5 63t160 20.5q26 0 54 -2t54.5 -5.5t46 -7t31 -7t18.5 -8.5t10 -13q1 10 4.5 16t12 11t24.5 7t42 2q24 0 40 -2t25.5 -6t13.5 -10t4 -14v-1336q0 -8 -4 -13.5t-13.5 -9.5t-25.5 -6t-40 -2 t-40 2t-25.5 6t-13.5 9.5t-4 13.5v1221q-2 -3 -6 -4.5t-11 -1.5q-11 0 -35 5.5t-50.5 9.5t-50.5 6t-46 2q-62 0 -102 -12.5t-63 -38.5t-31.5 -67t-8.5 -96v-98h185q8 0 14 -3.5t10.5 -12t6.5 -21.5t2 -32q0 -36 -8.5 -52t-24.5 -16h-185v-789q0 -8 -4 -13.5t-13.5 -9.5 t-25.5 -6t-40 -2t-40 2t-25.5 6t-13.5 9.5t-4 13.5v789h-127q-16 0 -24 16t-8 52z" />
<glyph unicode="&#xfb03;" horiz-adv-x="1654" d="M37 882q0 19 2 32t6 21.5t10 12t14 3.5h127v85q0 93 18 159.5t54 109.5t89.5 63.5t124.5 20.5q44 0 77 -7.5t48.5 -14t21.5 -12.5t10 -15.5t5.5 -23t1.5 -32.5q0 -32 -5 -46.5t-18 -14.5q-8 0 -18.5 4.5t-26.5 10t-36.5 10t-45.5 4.5q-74 0 -104 -51t-30 -163v-87h404v97 q0 93 18.5 159.5t53.5 109.5t87.5 63.5t120.5 20.5q22 0 44.5 -2t40 -6t31 -8.5t18.5 -9.5t8 -10.5t5.5 -13.5t3.5 -20t1 -29q0 -32 -5 -46t-18 -14q-7 0 -16 3.5t-21.5 7.5t-31.5 7.5t-46 3.5q-69 0 -98.5 -51t-29.5 -163v-99h519q26 0 39 -13.5t13 -37.5v-875 q0 -8 -4 -13.5t-13.5 -9.5t-25.5 -6t-41 -2q-23 0 -39.5 2t-26 6t-13 9.5t-3.5 13.5v789h-405v-789q0 -8 -4 -13.5t-13.5 -9.5t-25.5 -6t-40 -2t-40 2t-25.5 6t-13.5 9.5t-4 13.5v789h-404v-789q0 -8 -4 -13.5t-13.5 -9.5t-25.5 -6t-40 -2t-40 2t-25.5 6t-13.5 9.5t-4 13.5 v789h-127q-16 0 -24 16t-8 52zM1319 1228q0 28 5 46.5t16.5 31t31 17t48.5 4.5q30 0 49.5 -4.5t31 -17t16 -31t4.5 -46.5t-4.5 -47t-16 -30.5t-31 -16.5t-49.5 -5q-29 0 -48.5 5t-31 16.5t-16.5 30.5t-5 47z" />
<glyph unicode="&#xfb04;" horiz-adv-x="1654" d="M37 882q0 19 2 32t6 21.5t10 12t14 3.5h127v85q0 93 18 159.5t54 109.5t89.5 63.5t124.5 20.5q44 0 77 -7.5t48.5 -14t21.5 -12.5t10 -15.5t5.5 -23t1.5 -32.5q0 -32 -5 -46.5t-18 -14.5q-8 0 -18.5 4.5t-26.5 10t-36 10t-46 4.5q-74 0 -104 -51t-30 -163v-87h404v97 q0 93 21 159.5t64.5 109.5t110.5 63.5t160 20.5q26 0 54 -2t54.5 -5.5t46.5 -7t31 -7t18 -8.5t11 -14q0 10 3.5 16t12.5 11t25 7t41 2t41 -2t25.5 -6t13.5 -10t4 -14v-1336q0 -8 -4 -13.5t-13.5 -9.5t-25.5 -6t-41 -2q-23 0 -39.5 2t-26 6t-13 9.5t-3.5 13.5v1222 q-3 -3 -7 -4.5t-11 -1.5q-12 0 -35.5 5.5t-50 9.5t-50.5 6t-45 2q-62 0 -102 -12.5t-63 -39t-32 -67t-9 -95.5v-99h186q8 0 13.5 -3.5t10 -12t6.5 -21.5t2 -32q0 -36 -8.5 -52t-23.5 -16h-186v-789q0 -8 -4 -13.5t-13.5 -9.5t-25.5 -6t-40 -2t-40 2t-25.5 6t-13.5 9.5 t-4 13.5v789h-404v-789q0 -8 -4 -13.5t-13.5 -9.5t-25.5 -6t-40 -2t-40 2t-25.5 6t-13.5 9.5t-4 13.5v789h-127q-16 0 -24 16t-8 52z" />
<glyph horiz-adv-x="660" d="M0 1294zM132.5 1657q-2.5 9 4.5 16t24.5 11.5t47.5 4.5q25 0 42.5 -1.5t30.5 -5.5t24 -11t22 -20l188 -213q9 -11 11.5 -19t-2.5 -13.5t-18.5 -8t-36.5 -2.5q-21 0 -35 1.5t-25 5t-19.5 9t-18.5 15.5l-226 212q-11 10 -13.5 19z" />
<glyph horiz-adv-x="660" d="M0 1294zM133 1419q2 8 11 19l189 213q11 13 21.5 20t23.5 11t31 5.5t43 1.5q30 0 47 -4.5t24 -11.5t4.5 -16t-11.5 -19l-227 -212q-10 -10 -18.5 -15.5t-19.5 -9t-25.5 -5t-35.5 -1.5q-23 0 -36 2.5t-18 8t-3 13.5z" />
<glyph horiz-adv-x="916" d="M0 1294zM133 1416q2 7 11 17l224 227q8 9 16.5 14.5t19.5 9t25.5 4.5t35.5 1t35 -1t24.5 -4.5t18 -9t16.5 -14.5l214 -227q9 -10 11 -17.5t-4 -12t-20 -6.5t-36 -2q-30 0 -48 1.5t-29 4t-17.5 7t-11.5 9.5l-154 173l-159 -168q-8 -8 -16 -13.5t-20 -8.5t-30 -4t-45 -1 q-25 0 -38.5 2.5t-19 7t-3.5 11.5z" />
<glyph horiz-adv-x="936" d="M0 1294zM129 1436q0 48 14 85.5t40 62.5t62.5 38.5t80.5 13.5q53 0 92 -18t71 -39t60.5 -39t61.5 -18q35 0 55.5 20.5t20.5 71.5q0 13 14 17.5t48 4.5q36 0 47 -7.5t11 -32.5q0 -93 -51.5 -146.5t-145.5 -53.5q-53 0 -92 18t-71.5 39.5t-61 39t-60.5 17.5q-42 0 -59 -25 t-17 -67q0 -7 -4.5 -11.5t-12.5 -7t-19.5 -3t-25.5 -0.5q-36 0 -47 8t-11 32z" />
<glyph horiz-adv-x="757" d="M0 951zM132 1214q0 55 19.5 75.5t71.5 20.5t71.5 -20t19.5 -73q0 -54 -20 -74.5t-72 -20.5t-71 19.5t-19 72.5zM443 1214q0 55 19.5 75.5t70.5 20.5q53 0 72.5 -20t19.5 -73q0 -54 -20 -74.5t-72 -20.5t-71 19.5t-19 72.5z" />
<glyph horiz-adv-x="871" d="M0 1294zM132 1527q0 56 20.5 76.5t76.5 20.5t76.5 -20t20.5 -75q0 -56 -21 -77t-77 -21t-76 20.5t-20 75.5zM545 1527q0 56 21 76.5t76 20.5q57 0 77 -20t20 -75q0 -56 -20.5 -77t-77.5 -21q-55 0 -75.5 20.5t-20.5 75.5z" />
<glyph horiz-adv-x="672" d="M0 1294zM132 1544q0 43 13.5 78t40.5 59.5t65.5 38.5t87.5 14q97 0 149 -48.5t52 -134.5q0 -42 -14.5 -77t-41.5 -60t-65.5 -39.5t-86.5 -14.5q-51 0 -88.5 13.5t-62.5 37.5t-37 58t-12 75zM243 1551q0 -46 21.5 -73t73.5 -27q46 0 68 26.5t22 67.5q0 42 -21.5 70.5 t-70.5 28.5q-46 0 -69.5 -25t-23.5 -68z" />
<glyph d="M87 160q0 22 2 36.5t6 24t10.5 13t15.5 3.5q13 0 37 -14.5t63.5 -32t96.5 -32.5t137 -15q142 0 215.5 56t73.5 152q0 59 -27 98.5t-71.5 68t-101 49t-115 41.5t-115 48t-100.5 67t-71 97.5t-27 141.5q0 67 23 125t69 101.5t116 71t163 33.5l20 202q1 6 3.5 11.5t9.5 9.5 t19 5.5t33 1.5q22 0 36.5 -2t22 -6.5t9.5 -10.5t2 -14l-22 -200q30 -3 62.5 -10.5t61 -17t51.5 -21t31.5 -19.5t12 -15t5.5 -16t3.5 -21t1.5 -27q0 -19 -1.5 -33t-4.5 -22t-8 -12t-12 -4q-11 0 -35 13t-60.5 28t-84.5 28t-107 13q-67 0 -114.5 -13t-77 -36.5t-43 -56.5 t-13.5 -72q0 -60 27.5 -100t72 -68t101.5 -48t116.5 -41.5t116.5 -47.5t101.5 -66t72 -97.5t27.5 -141.5q0 -80 -30.5 -145.5t-86.5 -112.5t-137 -75t-181 -33l-22 -217q-1 -6 -3.5 -11.5t-9.5 -9t-19.5 -5.5t-32.5 -2q-23 0 -36.5 2.5t-21.5 6t-10.5 10t-0.5 14.5l23 216 q-48 6 -89 15.5t-73 20.5t-54.5 23t-33 22.5t-14.5 27.5t-4 47z" />
<glyph d="M74 69q0 18 2.5 31.5t7.5 22t11.5 12.5t14.5 4h123v454h-123q-7 0 -13 3.5t-11.5 11.5t-8.5 20.5t-3 32.5q0 17 2.5 30t7.5 21.5t11.5 12t14.5 3.5h123v120q0 123 28 211t79.5 144t124.5 81.5t163 25.5q42 0 82.5 -7.5t75 -20.5t62 -30t41 -30t18.5 -21t8 -18t4 -22 t1 -30q0 -17 -2 -30t-6 -21.5t-9.5 -13t-12.5 -4.5q-14 0 -33.5 17t-49.5 37t-72.5 37t-101.5 17q-60 0 -103.5 -20.5t-71.5 -60.5t-42 -99t-14 -136v-126h328q8 0 14.5 -3.5t11 -12t7 -21.5t2.5 -30q0 -20 -3 -32.5t-8 -20.5t-11 -11.5t-13 -3.5h-328v-454h504q7 0 13.5 -4 t11.5 -12.5t7.5 -22t2.5 -31.5q0 -19 -3 -32t-8 -21t-11.5 -12t-12.5 -4h-796q-7 0 -13 4t-11.5 12t-8.5 21t-3 32z" />
<glyph horiz-adv-x="1038" d="M107 599q0 83 9 168t32 164t62.5 148.5t99 121t142.5 81.5t193 30q37 0 75 -4.5t70 -12t54 -16.5t29 -14.5t10.5 -12t5.5 -14t3 -17t1 -23.5q0 -18 -0.5 -31t-4 -21t-9 -12t-14.5 -4q-11 0 -30 7t-46 15.5t-65.5 15.5t-89.5 7q-93 0 -160 -38t-109.5 -102t-63 -148.5 t-23.5 -176.5q26 15 58.5 30t71 27t81.5 19.5t92 7.5q105 0 177 -28.5t116.5 -79t63.5 -119t19 -148.5q0 -85 -26 -164.5t-80 -140t-137 -97t-196 -36.5q-81 0 -143 20t-108 57t-76.5 91t-49 123t-26.5 151t-8 176zM281 573q0 -129 16.5 -216t48 -139.5t78.5 -75t110 -22.5 q64 0 111 24t78 64.5t45.5 91t14.5 103.5q0 58 -11.5 105.5t-38.5 80.5t-72 51t-111 18q-37 0 -74 -6.5t-71.5 -18t-66 -27t-57.5 -33.5z" />
<glyph horiz-adv-x="1038" d="M82 302q0 61 20 112t57.5 94t92.5 80.5t124 71.5q-60 31 -106 65.5t-78 75t-48.5 86.5t-16.5 100q0 68 24.5 127.5t74 103.5t126 69.5t178.5 25.5q98 0 169.5 -23.5t118 -64t68.5 -95.5t22 -118q0 -51 -16.5 -98t-48.5 -89t-78.5 -78.5t-106.5 -68.5q71 -35 126.5 -72 t93 -79.5t57 -90t19.5 -104.5q0 -84 -30 -149.5t-86.5 -110.5t-139.5 -68t-190 -23q-100 0 -179 21t-134 62t-84 101t-29 137zM256 318q0 -97 66.5 -150t198.5 -53q128 0 193.5 53.5t65.5 145.5q0 46 -17 83.5t-51.5 70t-86 63t-119.5 63.5q-63 -31 -110.5 -62t-78 -64 t-46 -69.5t-15.5 -80.5zM298 996q0 -39 13.5 -72.5t42 -63.5t72 -58.5t103.5 -59.5q101 52 155 115t54 139q0 42 -14.5 76t-42.5 58t-69.5 36.5t-94.5 12.5q-108 0 -163.5 -49t-55.5 -134z" />
<glyph horiz-adv-x="669" d="M56 323q0 73 16.5 135t50.5 107t87.5 71t126.5 26q79 0 132.5 -27t85.5 -72.5t45 -106.5t13 -129q0 -77 -17 -140t-52 -107.5t-88.5 -69.5t-125.5 -25q-73 0 -125 23t-85 66.5t-48.5 106t-15.5 142.5zM197 329q0 -68 9.5 -113.5t27 -72t44 -37t60.5 -10.5q40 0 65.5 15 t41 44.5t22 71t6.5 95.5q0 56 -8 99.5t-24.5 72.5t-43.5 43.5t-64 14.5q-35 0 -61 -14t-42.5 -42t-24.5 -69.5t-8 -97.5z" />
<glyph horiz-adv-x="501" d="M49 479q0 13 0.5 23.5t3.5 18.5t7.5 13t10.5 9l187 110q4 1 8.5 2t11 1.5t17 1t26.5 0.5q21 0 33.5 -1t20 -3t10 -4.5t2.5 -7.5v-625q0 -6 -4 -10.5t-12.5 -7.5t-22 -4t-34.5 -1q-19 0 -32.5 1t-22 4t-12 7.5t-3.5 10.5v504l-149 -78q-14 -7 -23 -8.5t-14 3t-7 14.5 t-2 27z" />
<glyph horiz-adv-x="594" d="M60 57q0 15 1 25.5t4 19.5t8.5 16.5t16.5 16.5l133 122q37 35 62 61t40 49t21.5 45t6.5 47q0 39 -27 64t-73 25q-34 0 -60.5 -8t-46 -17.5t-32.5 -17.5t-20 -8q-4 0 -8 3t-6.5 10t-4 18t-1.5 28q0 20 2.5 30t9.5 18t26.5 18t46 19t59 15t67.5 6q56 0 97.5 -13.5 t69.5 -38.5t41.5 -59t13.5 -75q0 -33 -8.5 -64.5t-29 -65t-57 -72t-91.5 -83.5l-95 -80h285q14 0 20.5 -15t6.5 -43t-6.5 -40.5t-16.5 -12.5h-413q-12 0 -19.5 2t-12.5 8t-7.5 17t-2.5 30z" />
<glyph horiz-adv-x="585" d="M45 92q0 27 4.5 36t13.5 9q8 0 22 -7.5t35 -16t51 -15.5t72 -7q35 0 59.5 8t40 20.5t23 29t7.5 33.5q0 23 -9 41t-28.5 31t-50.5 19.5t-75 6.5h-66q-7 0 -12 2.5t-8 8.5t-5 16t-2 24q0 15 2 24.5t5 15t7.5 7.5t10.5 2h65q71 0 108 25.5t37 70.5q0 35 -26 58.5t-83 23.5 q-29 0 -55 -8t-46.5 -17.5t-35 -17t-20.5 -7.5q-4 0 -8 2t-7 8t-4.5 15.5t-1.5 23.5q0 11 0.5 18.5t2 13.5t4 10t7.5 9t23 14.5t45 18t60.5 15t71.5 6.5q56 0 97 -12.5t68.5 -34t41 -52t13.5 -67.5q0 -29 -9.5 -54t-27 -45.5t-43 -35t-55.5 -22.5q40 -4 70.5 -17t51 -33 t31.5 -46.5t11 -57.5q0 -45 -20 -82t-56 -63t-87 -40.5t-113 -14.5q-34 0 -65.5 4.5t-57.5 11.5t-44.5 15.5t-26 16.5t-10.5 20.5t-3 38.5z" />
<glyph horiz-adv-x="586" d="M20 189q0 16 0.5 27t2.5 20t5.5 17t9.5 18l236 362q3 4 10 7.5t18.5 6.5t29 4.5t41.5 1.5q28 0 47.5 -1.5t32 -4.5t17.5 -7.5t5 -9.5v-396h75q10 0 16.5 -11.5t6.5 -38.5q0 -26 -6 -40t-17 -14h-75v-113q0 -6 -3.5 -10t-11.5 -7t-21.5 -4.5t-33.5 -1.5q-19 0 -32 1.5 t-21 4.5t-11.5 7t-3.5 10v113h-286q-8 0 -14 2t-9.5 8t-5.5 18t-2 31zM136 234h201v302h-2z" />
</font>
</defs>
</svg>
