<?xml version="1.0" standalone="no"?>
<!DOCTYPE svg PUBLIC "-//W3C//DTD SVG 1.1//EN" "http://www.w3.org/Graphics/SVG/1.1/DTD/svg11.dtd" >
<svg xmlns="http://www.w3.org/2000/svg" xmlns:xlink="http://www.w3.org/1999/xlink" version="1.1">
<metadata>
Created by FontForge 20201107 at Tue Aug 16 21:16:10 2011
 By Unknown
The Egyptians wrote the verb first, followed by the subject.
</metadata>
<defs>
<font id="EgyptianHieroglyphsSilhouette" horiz-adv-x="950" >
  <font-face 
    font-family="Egyptian Hieroglyphs Silhouette"
    font-weight="400"
    font-stretch="normal"
    units-per-em="1000"
    panose-1="0 0 0 0 0 0 0 0 0 0"
    ascent="800"
    descent="-200"
    x-height="444"
    cap-height="800"
    bbox="-193.628 -340 1265 820"
    underline-thickness="50"
    underline-position="-100"
    stemh="202"
    stemv="25"
    unicode-range="U+0020-00F3"
  />
<missing-glyph horiz-adv-x="500" 
d="M125 63h250v675h-250v-675zM63 0v800h375v-800h-375z" />
    <glyph glyph-name=".notdef" horiz-adv-x="500" 
d="M125 63h250v675h-250v-675zM63 0v800h375v-800h-375z" />
    <glyph glyph-name="space" unicode=" " 
 />
    <glyph glyph-name="exclam" unicode="!" horiz-adv-x="441" 
d="M275 47c29 -33 85 -29 128 -43c-138 -9 -292 -1 -436 -4v7h61c16 45 0 115 5 167c-3 -26 -22 -57 -33 -79c-8 -16 -19 -46 -21 -62c-9 -3 -6 -3 -14 -5c20 60 44 117 66 176c31 82 27 183 47 265c1 7 16 0 11 14c-6 34 -20 60 -40 79c10 -93 -26 -163 -8 -248
c2 -7 2 -15 -3 -14c-3 0 -3 0 -8 1c1 -3 -1 -17 -6 -25c9 -4 24 10 22 -4c-5 -15 -13 0 -23 0c-6 -10 12 -29 -10 -29c-11 3 7 19 4 29c-14 3 -20 -17 -22 4c-1 11 12 3 20 1c-3 9 -5 16 -1 25c1 3 -4 3 -4 8c-6 83 -4 169 0 259c3 13 -18 2 -11 18c3 86 59 118 111 154
c7 22 0 76 21 71c-5 -19 -6 -82 4 -75c5 11 -8 73 18 83c-8 -23 0 -53 4 -76c27 -12 78 -2 89 -32c-27 -11 -72 -4 -82 -32c6 -60 87 -26 100 -75c10 -39 -8 -72 3 -125c37 -27 35 -92 93 -97c0 88 1 181 1 264c-1 16 -1 31 0 47c1 14 -18 20 -11 32c17 9 42 -51 40 -57
c-5 -19 -12 14 -22 14c0 -12 1 -29 1 -41c0 -85 3 -171 2 -255c0 -14 15 -6 11 -22c-23 -92 -7 -288 -11 -329c-7 24 -6 5 -14 0c7 82 2 205 3 304c-84 41 -140 110 -143 233c-8 -45 -28 -77 -28 -129c-3 -14 19 -3 14 -18c-18 -34 -4 -56 4 -100c12 -71 23 -116 35 -176
c8 -34 19 -88 33 -103zM20 276c4 6 13 28 1 29c-9 1 -6 -27 -1 -29zM71 57c10 -38 121 -56 168 -46c0 58 -31 84 -47 129c-15 43 -11 81 -28 114c-21 -3 -31 5 -50 4c0 -29 -15 -46 -22 -75c-6 -28 -6 -56 -11 -79c-3 -18 -14 -32 -10 -47z" />
    <glyph glyph-name="dollar" unicode="$" horiz-adv-x="471" 
d="M32 457c-27 22 -23 74 -22 122c10 42 -1 106 17 139c35 21 47 -42 51 -83c1 -18 9 -56 17 -53c0 44 9 134 11 136c3 3 7 28 29 13c30 -11 27 -113 45 -193c38 -1 65 -15 81 -29c31 -13 108 -11 141 -18c25 -5 32 -24 15 -40c-13 -12 -46 -30 -46 -30
c-92 1 -178 -18 -258 -28c3 -169 -13 -282 -9 -448c-16 -12 -65 -12 -85 0c7 70 8 445 13 512z" />
    <glyph glyph-name="percent" unicode="%" horiz-adv-x="1328" 
d="M1265 5h-486s-42 34 156 163c197 128 77 329 330 329v-492zM1192 799h71v-183h-455c-35 -36 -194 -2 -109 51c30 62 120 1 120 1s103 -3 341 0zM98 718h189h-189zM287 718h-189c-13 -31 -19 -88 -19 -88s-12 -110 107 -275c-5 -192 -5 -247 -5 -247
c-1 -43 -31 -56 -49 -69c-135 6 -159 -27 -108 -36c50 -4 147 0 172 0c8 6 25 79 42 118c0 0 34 -41 67 -6c21 -48 21 -62 21 -62c1 -25 -72 14 -68 -34c2 -20 117 -24 126 -10c-5 16 -29 102 -33 132c10 -11 61 -45 85 8c212 -309 345 -140 265 -67c78 7 -1 26 -126 234
c0 0 -125 209 -275 310c0 0 -16 20 -13 92z" />
    <glyph glyph-name="parenleft" unicode="(" horiz-adv-x="1111" 
d="M330 64c17 5 32 7 45 8c-49 13 -101 29 -189 44c-18 -4 -23 -14 -25 -20c18 -48 105 -49 169 -32zM28 18c-11 13 -14 32 -12 52l-56 -127c5 -9 3 -23 0 -36c-16 -68 -102 -247 -138 -247c-3 0 -6 1 -8 3c-8 6 -14 19 5 74c21 61 90 207 126 214l81 186
c8 36 76 94 133 124c41 23 131 6 196 -6c30 -5 55 -10 66 -9c31 2 80 14 175 94c65 55 70 180 72 254c1 25 2 44 5 54c2 10 7 12 11 12h1c10 0 16 -11 30 -51c4 20 13 47 24 47c16 0 8 -81 3 -122c5 -11 9 -20 13 -22c23 -15 217 -110 233 -113c6 -1 11 -5 12 -11
c3 -17 -20 -52 -38 -62l-2 -1h-3c-49 6 -183 16 -217 -12c-41 -33 -67 -149 -36 -202c6 -8 11 -17 16 -24c52 -20 212 -66 265 -49c59 18 75 -29 47 -39c-27 -9 -417 -13 -580 44c4 -8 2 -17 -4 -23c-21 -23 -274 -23 -339 -20c-46 3 -69 3 -81 18z" />
    <glyph glyph-name="parenright" unicode=")" horiz-adv-x="1111" 
d="M1018 18c-13 -15 -35 -15 -82 -18c-64 -3 -318 -3 -339 20c-6 6 -7 15 -4 23c-163 -57 -553 -53 -579 -44c-29 10 -13 57 47 39c53 -17 212 29 264 49c5 7 11 16 16 24c31 53 5 169 -35 202c-34 28 -169 18 -218 12h-3l-2 1c-17 10 -41 45 -38 62c2 6 6 10 13 11
c15 3 210 98 233 113c3 2 7 11 12 22c-5 41 -12 122 3 122c12 0 21 -27 24 -47c15 40 21 51 30 51h1c4 0 9 -2 12 -12c2 -10 3 -29 4 -54c3 -74 7 -199 73 -254c95 -80 143 -92 174 -94c11 -1 37 4 66 9c66 12 155 29 197 6c57 -30 124 -88 132 -124l81 -186
c37 -7 105 -153 126 -214c19 -55 13 -68 6 -74c-3 -2 -6 -3 -9 -3c-35 0 -122 179 -138 247c-3 13 -5 27 0 36l-55 127c1 -20 -1 -39 -12 -52zM715 64c65 -17 151 -16 169 32c-1 6 -7 16 -25 20c-88 -15 -140 -31 -189 -44c14 -1 29 -3 45 -8z" />
    <glyph glyph-name="asterisk" unicode="*" horiz-adv-x="1050" 
 />
    <glyph glyph-name="plus" unicode="+" horiz-adv-x="938" 
d="M635 464l172 46c3 -21 -24 -55 -37 -63c-17 -8 -111 -33 -138 -36c-22 -2 -104 -38 -122 -86c-2 -3 -2 -5 -3 -8c47 -42 180 -256 187 -549c0 0 -30 -9 -89 -14h-10c-3 19 -24 120 -29 146c-35 -3 -250 -16 -265 -17c0 0 -17 0 -159 -3v3c-3 -41 -7 -76 -17 -105v-4
c-1 0 -13 -1 -13 -1c-25 -3 -82 -7 -102 1c8 23 13 244 8 323c-4 78 -47 357 37 522c95 185 319 173 369 168v0c4 0 30 5 29 0s-2 -40 0 -40c1 -1 97 5 109 -14s21 -49 36 -57c0 0 15 -3 139 0c114 4 119 -3 119 -3c6 -3 2 -30 -5 -54c-8 -24 -28 -75 -52 -89
s-70 -14 -89 -18s-68 -30 -75 -48z" />
    <glyph glyph-name="hyphen" unicode="-" horiz-adv-x="938" 
d="M60 510l172 -46c-7 18 -56 44 -76 48c-19 4 -64 4 -88 18s-44 65 -52 89s-11 51 -6 54c0 0 6 7 120 3c124 -3 139 0 139 0c15 8 24 38 36 57s107 13 109 14c1 0 1 35 0 40s25 0 29 0v0c49 5 273 17 368 -168c85 -165 42 -444 37 -522c-4 -79 1 -300 8 -323
c-19 -8 -76 -4 -102 -1c0 0 -12 1 -13 1v4c-9 29 -14 64 -16 105v-3c-142 3 -159 3 -159 3c-16 1 -230 14 -265 17c-6 -26 -26 -127 -29 -146h-11c-58 5 -88 14 -88 14c7 293 139 507 187 549c-1 3 -2 5 -3 8c-19 48 -101 84 -123 86c-26 3 -121 28 -137 36
c-13 8 -40 42 -37 63z" />
    <glyph glyph-name="slash" unicode="/" horiz-adv-x="1239" 
 />
    <glyph glyph-name="one" unicode="1" horiz-adv-x="139" 
d="M22 531v202h25v-202h-25z" />
    <glyph glyph-name="two" unicode="2" horiz-adv-x="130" 
d="M22 231v202h25v-202h-25zM22 531v202h25v-202h-25z" />
    <glyph glyph-name="three" unicode="3" horiz-adv-x="214" 
d="M72 231v202h25v-202h-25zM122 531v202h25v-202h-25zM22 531v202h25v-202h-25z" />
    <glyph glyph-name="four" unicode="4" horiz-adv-x="205" 
d="M122 231v202h25v-202h-25zM22 231v202h25v-202h-25zM122 531v202h25v-202h-25zM22 531v202h25v-202h-25z" />
    <glyph glyph-name="five" unicode="5" horiz-adv-x="313" 
d="M172 231v202h25v-202h-25zM72 231v202h25v-202h-25zM222 531v202h25v-202h-25zM122 531v202h25v-202h-25zM22 531v202h25v-202h-25z" />
    <glyph glyph-name="six" unicode="6" horiz-adv-x="332" 
d="M222 231v202h25v-202h-25zM122 231v202h25v-202h-25zM22 231v202h25v-202h-25zM222 531v202h25v-202h-25zM122 531v202h25v-202h-25zM22 531v202h25v-202h-25z" />
    <glyph glyph-name="seven" unicode="7" horiz-adv-x="431" 
d="M272 231v202h25v-202h-25zM172 231v202h25v-202h-25zM72 231v202h25v-202h-25zM322 531v202h25v-202h-25zM222 531v202h25v-202h-25zM122 531v202h25v-202h-25zM22 531v202h25v-202h-25z" />
    <glyph glyph-name="eight" unicode="8" horiz-adv-x="431" 
d="M322 231v202h25v-202h-25zM222 231v202h25v-202h-25zM122 231v202h25v-202h-25zM22 231v202h25v-202h-25zM322 531v202h25v-202h-25zM222 531v202h25v-202h-25zM122 531v202h25v-202h-25zM22 531v202h25v-202h-25z" />
    <glyph glyph-name="nine" unicode="9" horiz-adv-x="511" 
d="M372 231v202h25v-202h-25zM422 531v202h25v-202h-25zM272 231v202h25v-202h-25zM172 231v202h25v-202h-25zM72 231v202h25v-202h-25zM322 531v202h25v-202h-25zM222 531v202h25v-202h-25zM122 531v202h25v-202h-25zM22 531v202h25v-202h-25z" />
    <glyph glyph-name="colon" unicode=":" horiz-adv-x="840" 
 />
    <glyph glyph-name="semicolon" unicode=";" horiz-adv-x="1076" 
 />
    <glyph glyph-name="question" unicode="?" horiz-adv-x="379" 
 />
    <glyph glyph-name="at" unicode="@" horiz-adv-x="782" 
d="M709 369c9 -23 3 -61 4 -90c-34 -12 -65 7 -91 21c-80 42 -159 87 -278 93c4 -14 11 -19 12 -33c11 -114 -191 -97 -145 23c-33 -4 -54 -19 -70 -39c28 -35 68 -62 120 -69c47 -6 92 11 131 27c38 16 73 39 110 42c-2 -17 -22 -28 -36 -36c-43 -25 -100 -49 -159 -60
c30 -39 67 -71 122 -85c8 12 -15 12 -8 23c40 8 44 -39 14 -44c-44 -7 -104 63 -139 69c-13 -30 20 -109 -21 -116c-25 30 -6 92 -16 137c-33 17 -74 51 -116 62c-25 6 -70 -19 -87 0c-18 19 5 36 22 48c24 15 47 39 69 53c35 24 70 44 114 48c116 11 189 -43 272 -68
c-7 20 -29 33 -46 45c-50 37 -122 77 -205 77c-79 0 -141 -38 -191 -72c-16 -11 -38 -35 -54 -34c-17 1 -28 20 -27 36c1 22 33 38 43 45c53 34 134 73 208 71c121 -4 201 -42 266 -104c31 -30 63 -93 130 -85c19 2 29 14 52 15zM657 354c19 2 29 14 52 15
c9 -23 3 -61 4 -90c-34 -12 -65 7 -91 21c-80 42 -159 87 -278 93c4 -14 11 -19 12 -33c11 -114 -191 -97 -145 23c-33 -4 -54 -19 -70 -39c28 -35 68 -62 120 -69c47 -6 92 11 131 27c38 16 73 39 110 42c-2 -17 -22 -28 -36 -36c-43 -25 -100 -49 -159 -60
c30 -39 67 -71 122 -85c8 12 -15 12 -8 23c40 8 44 -39 14 -44c-44 -7 -104 63 -139 69c-13 -30 20 -109 -21 -116c-25 30 -6 92 -16 137c-33 17 -74 51 -116 62c-25 6 -70 -19 -87 0c-18 19 5 36 22 48c24 15 47 39 69 53c35 24 70 44 114 48c116 11 189 -43 272 -68
c-7 20 -29 33 -46 45c-50 37 -122 77 -205 77c-79 0 -141 -38 -191 -72c-16 -11 -38 -35 -54 -34c-17 1 -28 20 -27 36c1 22 33 38 43 45c53 34 134 73 208 71c121 -4 201 -42 266 -104c31 -30 63 -93 130 -85z" />
    <glyph glyph-name="A" unicode="A" horiz-adv-x="887" 
d="M6 49c0 0 -12 10 112 168c36 82 317 373 327 429c8 45 2 47 7 89c0 0 5 47 95 45c32 -1 65 -33 124 -35c140 -3 135 -64 130 -81c-58 32 -107 30 -107 30s-48 -2 -53 -20c-4 -98 -2 -157 -2 -157c-1 -59 -46 -185 -62 -222c0 0 -15 -37 3 -114l32 -142c178 8 191 3 191 3
c11 -4 58 -34 29 -60c0 0 -27 -23 -58 21c-181 -12 -202 0 -202 0s-13 21 -32 131h-87c-1 -46 7 -78 7 -78s65 -5 52 -56c-22 -7 -183 0 -201 0c-4 -12 -27 -25 -48 -22s-25 28 -2 55c0 0 23 26 148 21v66c-28 -23 -90 -58 -102 55c-90 -189 -229 -182 -252 -175
c-23 6 7 46 0 49c-7 4 -33 -13 -49 0z" />
    <glyph glyph-name="B" unicode="B" horiz-adv-x="592" 
d="M181 800c6 -55 -69 -537 29 -640c94 -101 326 -5 326 -105c0 -101 -230 -30 -292 -37c-156 -16 -199 -1 -229 35c-27 32 27 135 24 182c0 0 -3 70 -40 565h182z" />
    <glyph glyph-name="C" unicode="C" 
d="M855 505c-40 -107 -202 -231 -404 -231c0 0 -186 0 -327 125c-63 -145 -215 -59 -41 106c0 0 64 -2 772 0z" />
    <glyph glyph-name="D" unicode="D" horiz-adv-x="1033" 
d="M3 508c177 -19 219 3 219 3c42 22 175 96 226 96s117 -31 175 -29c0 0 20 0 59 13c93 42 148 -7 119 -60c133 0 91 -67 107 -67s58 -4 58 -51c0 0 0 -47 -63 -44c0 -64 -54 -60 -93 -60c0 0 0 -59 -61 -65h-385s-104 0 -168 54h-193v210z" />
    <glyph glyph-name="E" unicode="E" horiz-adv-x="1035" 
d="M5 592h116l52 -214c389 -5 556 0 556 0s148 100 197 -1c137 -86 -122 -142 -179 -84h-742v299z" />
    <glyph glyph-name="F" unicode="F" horiz-adv-x="1031" 
d="M913 581c105 -76 19 -130 2 -144c-15 -13 -82 -6 -101 12c-53 -58 -118 -78 -204 -80c-85 -2 -94 18 -148 21c-53 3 -117 -32 -276 -31c-112 0 -200 16 -175 71c10 22 199 0 262 0s142 29 194 31c53 2 76 -13 151 -13c0 0 137 0 191 133c-120 36 -8 94 49 29
c90 92 124 3 55 -29z" />
    <glyph glyph-name="G" unicode="G" horiz-adv-x="820" 
d="M628 596c-11 -58 -13 -282 122 -434c-48 -91 -345 -99 -384 -99v0c-64 0 -325 26 -363 99c135 152 133 376 122 434h-62v69h306h321v-69h-62z" />
    <glyph glyph-name="H" unicode="H" horiz-adv-x="668" 
d="M6 75v634h592v-634h-83v551h-426v-468h171v333h84v-416h-338z" />
    <glyph glyph-name="I" unicode="I" horiz-adv-x="296" 
d="M89 3h-89c-4 510 0 582 0 582c0 72 11 196 177 215l69 -539c-134 -12 -153 -66 -153 -66s-10 -27 -4 -192z" />
    <glyph glyph-name="J" unicode="J" horiz-adv-x="862" 
d="M581 610c5 38 -2 90 4 144c0 0 5 43 79 41c118 -3 147 -99 122 -129c-38 -46 -102 25 -109 0c-7 -29 29 -79 27 -122c0 0 -2 -44 -33 -52c-132 -32 -421 32 -494 -43c-55 -56 -40 -307 -62 -366c-13 -34 -19 -71 -76 -88c-86 30 -6 144 -9 198c-3 75 -37 261 43 352
c117 134 498 -2 508 65z" />
    <glyph glyph-name="K" unicode="K" 
d="M855 505c-40 -107 -202 -231 -404 -231c0 0 -186 0 -327 125c-63 -145 -215 -59 -41 106c0 0 64 -2 772 0z" />
    <glyph glyph-name="L" unicode="L" horiz-adv-x="1289" 
d="M1063 456c-4 -34 -34 -29 -48 -48c-15 -19 -47 -42 -103 -34c0 0 4 -79 45 -90c32 -12 141 -20 165 -8c9 5 39 43 71 23c63 -41 -6 -112 -39 -113c-32 -1 -206 -4 -283 9c-44 8 -64 90 -82 73c-50 -44 -203 -35 -221 -15c-71 87 -239 106 -250 59
c-19 -84 125 -54 182 -60c58 -6 23 -67 -6 -65c-29 3 -275 -16 -401 -6c-136 38 -90 208 -64 257c26 48 95 89 143 107c49 18 68 38 59 53c-10 15 -32 19 -65 -12c0 0 -33 -32 -56 -7c-43 48 133 135 179 44c15 -28 23 -89 -82 -125c-177 -61 -149 -123 -149 -159
c0 -37 38 -67 45 -35c45 197 209 199 244 204c35 4 242 -12 282 22c41 34 129 156 204 157c75 2 137 -78 149 -91s10 -45 28 -66c17 -21 56 -47 53 -74z" />
    <glyph glyph-name="M" unicode="M" horiz-adv-x="796" 
d="M644 740h-195h195zM449 740h195c13 -32 19 -92 19 -92s12 -112 -110 -283c5 -198 5 -255 5 -255c1 -44 32 -57 50 -70c140 6 165 -29 112 -38c-52 -4 -151 0 -177 0c-8 6 -26 82 -44 122c0 0 -34 -42 -69 -6c-21 -50 -22 -64 -22 -64c0 -26 75 14 70 -35
c-2 -21 -120 -25 -129 -11c5 17 30 106 33 136c-9 -11 -62 -46 -87 8c-218 -318 -356 -144 -273 -68c-80 7 1 26 130 241c0 0 129 215 283 320c0 0 17 20 14 95z" />
    <glyph glyph-name="N" unicode="N" horiz-adv-x="1360" 
d="M62 300l-74 58l141 170l74 -71l76 56l85 -59l68 56l74 -67l85 67l71 -56l85 63l74 -74l74 76l70 -62l91 71l160 -192l-77 -45l-105 118l-67 -75l-69 75l-76 -100l-86 100l-71 -87l-88 87l-71 -89l-67 72l-70 -63l-85 80l-61 -89l-83 89z" />
    <glyph glyph-name="O" unicode="O" horiz-adv-x="779" 
d="M562 387c0 -35 158 29 158 -2c0 -50 -153 -19 -166 -44c-7 -13 63 -82 68 -176c2 -52 -24 -100 -88 -107c-53 -5 -82 46 -81 115c1 37 42 156 37 159c-5 2 -68 -7 -86 -12c-29 -7 -81 7 -80 36c1 44 33 63 76 63c47 0 103 -63 107 -26c7 72 5 340 -171 337
c-187 -3 -152 -286 -158 -427c0 0 -9 -185 -144 -297l-34 33c102 88 127 215 128 266c2 54 -46 471 210 475c255 4 224 -375 224 -393z" />
    <glyph glyph-name="P" unicode="P" horiz-adv-x="616" 
d="M0 0v800h553v-800h-553z" />
    <glyph glyph-name="Q" unicode="Q" horiz-adv-x="861" 
d="M796 5h-792v803c412 0 215 -328 538 -537c322 -209 254 -266 254 -266z" />
    <glyph glyph-name="R" unicode="R" horiz-adv-x="1097" 
d="M997 409c-148 -81 -283 -130 -498 -130c-216 0 -352 49 -500 130c148 81 284 130 500 130c215 0 350 -49 498 -130z" />
    <glyph glyph-name="S" unicode="S" horiz-adv-x="229" 
d="M140 -3v730c0 11 -18 24 -51 24c-30 0 -45 -17 -45 -28v-477h-43v481l1 7c7 21 34 60 87 60c62 0 94 -42 94 -65v-732h-43z" />
    <glyph glyph-name="T" unicode="T" horiz-adv-x="868" 
d="M799 240h-803c21 203 193 361 401 361c209 0 380 -158 402 -361z" />
    <glyph glyph-name="U" unicode="U" horiz-adv-x="612" 
d="M127 435c15 28 168 222 175 230s2 20 16 43c15 23 30 94 88 94s89 -33 106 -49c16 -17 69 -14 58 -20c-48 -28 -52 -22 -63 -42c-67 -120 36 -67 -167 -380c-2 -3 -5 -6 -8 -9c2 -57 7 -197 73 -238c46 -28 120 -18 136 -18s59 -41 -7 -42c-65 -1 -112 -3 -134 0
s-102 84 -107 271c-22 -12 -44 -23 -76 -32c2 -26 -5 -45 1 -74c3 -13 16 -87 58 -127c10 -10 45 5 47 -18c1 -19 -8 -22 -28 -21c-19 0 -144 -1 -158 0c-14 0 -19 32 3 32c43 0 74 4 94 3c-8 11 -31 37 -47 92c-11 37 -17 71 -11 103c-1 0 -12 -4 -13 -4
c-117 -22 -165 34 -164 49c2 15 113 129 128 157z" />
    <glyph glyph-name="V" unicode="V" horiz-adv-x="612" 
d="M127 435c15 28 168 222 175 230s2 20 16 43c15 23 30 94 88 94s89 -33 106 -49c16 -17 69 -14 58 -20c-48 -28 -52 -22 -63 -42c-67 -120 36 -67 -167 -380c-2 -3 -5 -6 -8 -9c2 -57 7 -197 73 -238c46 -28 120 -18 136 -18s59 -41 -7 -42c-65 -1 -112 -3 -134 0
s-102 84 -107 271c-22 -12 -44 -23 -76 -32c2 -26 -5 -45 1 -74c3 -13 16 -87 58 -127c10 -10 45 5 47 -18c1 -19 -8 -22 -28 -21c-19 0 -144 -1 -158 0c-14 0 -19 32 3 32c43 0 74 4 94 3c-8 11 -31 37 -47 92c-11 37 -17 71 -11 103c-1 0 -12 -4 -13 -4
c-117 -22 -165 34 -164 49c2 15 113 129 128 157z" />
    <glyph glyph-name="W" unicode="W" horiz-adv-x="435" 
d="M286 328c28 61 47 172 0 223c-62 58 -215 53 -200 -71c8 -21 29 -31 32 -33c24 -10 72 -8 98 29c1 0 0 0 0 0c4 5 -6 -2 0 0c18 -16 29 -29 49 -51c-36 -46 -116 -91 -194 -54c-47 40 -91 103 -54 204c22 60 131 99 178 95v0c29 0 74 -12 80 -13
c87 -27 116 -133 116 -133c48 -167 -65 -302 -105 -355c-39 -38 -125 -130 -223 -172c-16 26 -38 46 -51 75c114 62 256 215 274 256z" />
    <glyph glyph-name="X" unicode="X" horiz-adv-x="1161" 
d="M140 -3v730c0 11 -18 24 -51 24c-30 0 -45 -17 -45 -28v-477h-43v481l1 7c7 21 34 60 87 60c62 0 94 -42 94 -65v-732h-43zM1085 505c-40 -107 -202 -231 -404 -231c0 0 -186 0 -327 125c-63 -145 -215 -59 -41 106c0 0 64 -2 772 0z" />
    <glyph glyph-name="Y" unicode="Y" horiz-adv-x="565" 
d="M88 9h-83c-3 471 0 538 0 538c0 66 10 181 164 199l63 -499c-123 -11 -141 -60 -141 -60s-9 -26 -3 -178zM365 9h-83c-3 471 0 538 0 538c0 66 11 181 164 199l64 -499c-124 -11 -142 -60 -142 -60s-9 -26 -3 -178z" />
    <glyph glyph-name="Z" unicode="Z" horiz-adv-x="936" 
d="M836 412c6 0 11 -5 11 -11s-5 -10 -11 -10h-330c-5 -19 -21 -32 -41 -32c-13 0 -25 6 -33 16c-8 -10 -20 -16 -33 -16c-20 0 -36 13 -41 32h-351c-6 0 -11 4 -11 10s5 11 11 11h351c5 18 21 32 41 32c13 0 25 -7 33 -17c8 10 20 17 33 17c20 0 36 -14 41 -32h330z" />
    <glyph glyph-name="a" unicode="a" horiz-adv-x="887" 
d="M832 49c-16 -13 -42 4 -49 0c-7 -3 23 -43 0 -49c-23 -7 -163 -14 -253 175c-12 -113 -74 -78 -102 -55v-66c125 5 148 -21 148 -21c23 -27 20 -52 -1 -55c-22 -3 -45 10 -48 22c-19 0 -180 -7 -201 0c-14 51 51 56 51 56s9 32 7 78h-86c-20 -110 -32 -131 -32 -131
s-21 -12 -202 0c-31 -44 -58 -21 -58 -21c-29 26 18 56 28 60c0 0 14 5 191 -3l33 142c17 77 2 114 2 114c-16 37 -60 163 -61 222c0 0 2 59 -3 157c-4 18 -53 20 -53 20s-48 2 -107 -30c-4 17 -10 78 130 81c60 2 92 34 124 35c91 2 96 -45 96 -45c4 -42 -2 -44 6 -89
c10 -56 292 -347 328 -429c124 -158 112 -168 112 -168z" />
    <glyph glyph-name="b" unicode="b" horiz-adv-x="592" 
d="M355 800h182c-37 -495 -40 -565 -40 -565c-3 -47 51 -150 24 -182c-30 -36 -73 -51 -229 -35c-62 7 -292 -64 -292 37c0 100 232 4 326 105c98 103 23 585 29 640z" />
    <glyph glyph-name="c" unicode="c" 
d="M-7 505c708 -2 772 0 772 0c174 -165 22 -251 -41 -106c-141 -125 -327 -125 -327 -125c-202 0 -364 124 -404 231z" />
    <glyph glyph-name="d" unicode="d" horiz-adv-x="1033" 
d="M966 508v-210h-192c-65 -54 -168 -54 -168 -54h-385c-62 6 -62 65 -62 65c-39 0 -93 -4 -93 60c-63 -3 -63 44 -63 44c0 47 43 51 59 51s-27 67 106 67c-29 53 26 102 120 60c38 -13 58 -13 58 -13c58 -2 124 29 175 29s184 -74 226 -96c0 0 43 -22 219 -3z" />
    <glyph glyph-name="e" unicode="e" horiz-adv-x="1035" 
d="M850 592h116v-299h-742c-57 -58 -316 -2 -179 84c49 101 197 1 197 1s167 -5 557 0z" />
    <glyph glyph-name="f" unicode="f" horiz-adv-x="1009" 
d="M53 531c-69 32 -35 121 55 29c57 65 169 7 49 -29c54 -133 191 -133 191 -133c75 0 98 15 151 13c52 -2 131 -31 194 -31c64 0 252 22 262 0c25 -55 -63 -71 -175 -71c-159 -1 -223 34 -276 31c-54 -3 -63 -23 -148 -21c-86 2 -151 22 -204 80c-19 -18 -85 -25 -101 -12
c-17 14 -103 68 2 144z" />
    <glyph glyph-name="g" unicode="g" horiz-adv-x="820" 
d="M628 596c-11 -58 -13 -282 122 -434c-48 -91 -345 -99 -384 -99v0c-64 0 -325 26 -363 99c135 152 133 376 122 434h-62v69h306h321v-69h-62z" />
    <glyph glyph-name="h" unicode="h" horiz-adv-x="668" 
d="M598 709v-634h-337v416h83v-333h171v468h-426v-551h-83v634h592z" />
    <glyph glyph-name="i" unicode="i" horiz-adv-x="296" 
d="M156 3c7 165 -3 192 -3 192s-20 54 -153 66l68 539c166 -19 178 -143 178 -215c0 0 3 -72 0 -582h-90z" />
    <glyph glyph-name="j" unicode="j" horiz-adv-x="862" 
d="M216 610c10 -67 390 69 508 -65c79 -91 46 -277 42 -352c-3 -54 78 -168 -9 -198c-56 17 -63 54 -75 88c-22 59 -7 310 -62 366c-74 75 -362 11 -494 43c-31 8 -33 52 -33 52c-3 43 33 93 26 122c-7 25 -71 -46 -109 0c-25 30 5 126 122 129c74 2 79 -41 79 -41
c7 -54 -1 -106 5 -144z" />
    <glyph glyph-name="k" unicode="k" 
d="M-7 505c708 -2 772 0 772 0c174 -165 22 -251 -41 -106c-141 -125 -327 -125 -327 -125c-202 0 -364 124 -404 231z" />
    <glyph glyph-name="l" unicode="l" horiz-adv-x="1289" 
d="M159 456c-3 27 36 53 54 74c17 21 16 53 27 66c12 13 74 93 149 91c75 -1 164 -123 204 -157c41 -34 247 -18 282 -22c35 -5 200 -7 245 -204c7 -32 44 -2 44 35c0 36 28 98 -149 159c-105 36 -97 97 -82 125c46 91 223 4 179 -44c-23 -25 -56 7 -56 7
c-33 31 -55 27 -64 12c-10 -15 10 -35 58 -53c49 -18 117 -59 143 -107c26 -49 72 -219 -64 -257c-126 -10 -372 9 -401 6c-29 -2 -64 59 -6 65s201 -24 182 60c-11 47 -179 28 -250 -59c-17 -20 -171 -29 -221 15c-18 17 -38 -65 -82 -73c-76 -13 -250 -10 -283 -9
c-32 1 -102 72 -39 113c32 20 63 -18 72 -23c23 -12 133 -4 164 8c41 11 45 90 45 90c-56 -8 -88 15 -102 34c-15 19 -45 14 -49 48z" />
    <glyph glyph-name="m" unicode="m" horiz-adv-x="796" 
d="M108 740h195c-3 -75 13 -95 13 -95c155 -105 284 -320 284 -320c129 -215 210 -234 130 -241c82 -76 -55 -250 -274 68c-24 -54 -77 -19 -87 -8c4 -30 29 -119 33 -136c-8 -14 -127 -10 -129 11c-5 49 71 9 70 35c0 0 0 14 -22 64c-34 -36 -69 6 -69 6
c-18 -40 -35 -116 -44 -122c-25 0 -125 -4 -176 0c-53 9 -29 44 111 38c19 13 50 26 51 70c0 0 0 57 4 255c-122 171 -110 283 -110 283s6 60 20 92zM303 740h-195h195z" />
    <glyph glyph-name="n" unicode="n" horiz-adv-x="1360" 
d="M62 300l-74 58l141 170l74 -71l76 56l85 -59l68 56l74 -67l85 67l71 -56l85 63l74 -74l74 76l70 -62l91 71l160 -192l-77 -45l-105 118l-67 -75l-69 75l-76 -100l-86 100l-71 -87l-88 87l-71 -89l-67 72l-70 -63l-85 80l-61 -89l-83 89z" />
    <glyph glyph-name="o" unicode="o" horiz-adv-x="779" 
d="M158 387c0 18 -31 397 224 393c256 -4 208 -421 209 -475c2 -51 27 -178 129 -266l-34 -33c-135 112 -144 297 -144 297c-6 141 29 424 -158 427c-176 3 -178 -265 -171 -337c4 -37 60 26 107 26c43 0 75 -19 76 -63c1 -29 -51 -43 -80 -36c-18 5 -81 14 -86 12
c-5 -3 35 -122 36 -159c2 -69 -27 -120 -80 -115c-64 7 -91 55 -88 107c5 94 75 163 68 176c-13 25 -166 -6 -166 44c0 31 158 -33 158 2z" />
    <glyph glyph-name="p" unicode="p" horiz-adv-x="616" 
d="M0 0v800h553v-800h-553z" />
    <glyph glyph-name="q" unicode="q" horiz-adv-x="861" 
d="M796 5h-792s-68 57 254 266s125 537 538 537v-803z" />
    <glyph glyph-name="r" unicode="r" horiz-adv-x="1097" 
d="M997 409c-148 -81 -283 -130 -498 -130c-216 0 -352 49 -500 130c148 81 284 130 500 130c215 0 350 -49 498 -130z" />
    <glyph glyph-name="s" unicode="s" horiz-adv-x="229" 
d="M44 727v-730h-43v732c0 23 33 65 95 65c53 0 80 -39 86 -60l1 -7v-481h-43v477c0 11 -15 28 -44 28c-34 0 -52 -13 -52 -24z" />
    <glyph glyph-name="t" unicode="t" horiz-adv-x="868" 
d="M799 240h-803c21 203 193 361 401 361c209 0 380 -158 402 -361z" />
    <glyph glyph-name="u" unicode="u" horiz-adv-x="612" 
d="M442 435c15 -28 126 -142 128 -157c1 -15 -47 -71 -164 -49c-1 0 -12 4 -13 4c6 -32 0 -66 -11 -103c-16 -55 -39 -81 -47 -92c20 1 51 -3 95 -3c21 0 17 -32 2 -32c-14 -1 -138 0 -158 0c-20 -1 -28 2 -27 21c1 23 36 8 46 18c42 40 56 114 58 127c6 29 -1 48 1 74
c-32 9 -54 20 -76 32c-5 -187 -85 -268 -107 -271s-69 -1 -134 0s-22 42 -7 42c16 0 90 -10 136 18c66 41 71 181 73 238c-3 3 -6 6 -8 9c-203 313 -100 260 -167 380c-11 20 -15 14 -63 42c-10 6 42 3 58 20c17 16 48 49 106 49s73 -71 88 -94s10 -35 16 -43
c7 -8 161 -202 175 -230z" />
    <glyph glyph-name="v" unicode="v" horiz-adv-x="612" 
d="M442 435c15 -28 126 -142 128 -157c1 -15 -47 -71 -164 -49c-1 0 -12 4 -13 4c6 -32 0 -66 -11 -103c-16 -55 -39 -81 -47 -92c20 1 51 -3 95 -3c21 0 17 -32 2 -32c-14 -1 -138 0 -158 0c-20 -1 -28 2 -27 21c1 23 36 8 46 18c42 40 56 114 58 127c6 29 -1 48 1 74
c-32 9 -54 20 -76 32c-5 -187 -85 -268 -107 -271s-69 -1 -134 0s-22 42 -7 42c16 0 90 -10 136 18c66 41 71 181 73 238c-3 3 -6 6 -8 9c-203 313 -100 260 -167 380c-11 20 -15 14 -63 42c-10 6 42 3 58 20c17 16 48 49 106 49s73 -71 88 -94s10 -35 16 -43
c7 -8 161 -202 175 -230z" />
    <glyph glyph-name="w" unicode="w" horiz-adv-x="435" 
d="M117 328c18 -41 160 -194 274 -256c-13 -29 -34 -49 -51 -75c-98 42 -184 134 -223 172c-40 53 -153 188 -105 355c0 0 29 106 117 133c5 1 50 13 79 13v0c47 4 156 -35 178 -95c37 -101 -7 -164 -54 -204c-78 -37 -158 8 -194 54c20 22 31 35 49 51c7 -2 -4 5 0 0v0
c26 -37 74 -39 98 -29c3 2 24 12 32 33c15 124 -138 129 -200 71c-47 -51 -28 -162 0 -223z" />
    <glyph glyph-name="x" unicode="x" horiz-adv-x="686" 
d="M259 533v-545h-32v547c0 17 24 48 70 48c40 0 60 -29 65 -45l1 -4v-360h-32v357c0 7 -12 20 -34 20c-25 0 -38 -9 -38 -18zM-4 801c529 -2 577 0 577 0c130 -123 16 -188 -31 -79c-105 -94 -244 -94 -244 -94c-151 0 -272 93 -302 173z" />
    <glyph glyph-name="y" unicode="y" horiz-adv-x="565" 
d="M150 9c6 152 -3 178 -3 178s-19 49 -142 60l63 499c154 -18 164 -133 164 -199c0 0 3 -67 0 -538h-82zM427 9c6 152 -3 178 -3 178s-18 49 -142 60l63 499c154 -18 165 -133 165 -199c0 0 3 -67 0 -538h-83z" />
    <glyph glyph-name="z" unicode="z" horiz-adv-x="936" 
d="M836 412c6 0 11 -5 11 -11s-5 -10 -11 -10h-330c-5 -19 -21 -32 -41 -32c-13 0 -25 6 -33 16c-8 -10 -20 -16 -33 -16c-20 0 -36 13 -41 32h-351c-6 0 -11 4 -11 10s5 11 11 11h351c5 18 21 32 41 32c13 0 25 -7 33 -17c8 10 20 17 33 17c20 0 36 -14 41 -32h330z" />
    <glyph glyph-name="braceleft" unicode="{" horiz-adv-x="1111" 
 />
    <glyph glyph-name="braceright" unicode="}" horiz-adv-x="1111" 
 />
    <glyph glyph-name="cent" unicode="&#xa2;" horiz-adv-x="471" 
d="M395 457c4 -67 5 -442 13 -512c-20 -12 -69 -12 -85 0c4 166 -13 279 -9 448c-81 10 -166 29 -258 28c0 0 -34 18 -46 30c-18 16 -11 35 15 40c33 7 110 5 141 18c16 14 43 28 81 29c18 80 15 182 45 193c22 15 26 -10 29 -13c2 -2 11 -92 11 -136c8 -3 16 35 17 53
c3 41 16 104 50 83c19 -33 8 -97 18 -139c0 -48 5 -100 -22 -122z" />
    <glyph glyph-name="sterling" unicode="&#xa3;" horiz-adv-x="396" 
d="M306 705l-1 -9s3 2 4 1c1 -7 -9 -20 -14 -23c-6 -3 -41 -12 -51 -13c-8 -1 -38 -14 -45 -32c0 -1 -1 -2 -1 -3c18 -15 66 -94 69 -202c0 0 -11 -2 -33 -4v0c-1 -6 1 -23 0 -32c-1 -10 -9 -88 -11 -95s-13 -63 -17 -77v0c0 -1 -1 -2 -1 -3v0c-5 -13 -24 -70 -29 -80
c-5 -11 -28 -180 -4 -230c17 -35 66 -41 75 -43c47 -11 51 -11 51 -11c5 0 21 4 24 -6c4 -10 -5 -24 -9 -32c-1 -2 -2 -4 -2 -5c36 1 73 1 80 2l1 -5c-156 -3 -161 -3 -161 -3h-263c0 0 -3 1 0 5h109c-1 15 -9 133 -10 142c0 9 -1 155 0 166s-16 194 -21 203
c-5 10 -12 15 -10 40c1 21 11 50 15 62c1 2 2 8 2 8c-9 -1 -30 -2 -37 0c2 9 4 90 2 119c-1 29 -17 131 14 192c35 68 117 64 136 62v0c1 0 11 2 10 0v-15c1 0 36 2 40 -5c5 -7 8 -18 14 -21c0 0 5 -1 51 0c42 2 44 -1 44 -1c2 -1 0 -11 -2 -20c-3 -8 -10 -27 -19 -32z" />
    <glyph glyph-name="yen" unicode="&#xa5;" horiz-adv-x="393" 
d="M56 696l-1 9c-9 5 -16 24 -19 32c-3 9 -4 19 -2 20c0 0 2 3 44 1c45 -1 51 0 51 0c5 3 9 14 13 21c5 7 40 5 40 5c1 0 0 13 0 15s9 0 11 0v0c18 2 100 6 135 -62c31 -61 16 -163 14 -192s0 -110 3 -119c-7 -2 -28 -1 -38 0c0 0 2 -6 2 -8c4 -12 15 -41 16 -62
c1 -25 -5 -30 -10 -40c-5 -9 -23 -192 -22 -203s1 -157 0 -166c0 -9 -8 -127 -9 -142h108c3 -4 0 -5 0 -5h-262c0 0 -5 0 -162 3l2 5c6 -1 43 -1 80 -2c-1 1 -2 3 -3 5c-4 8 -12 22 -9 32c4 10 20 6 24 6c0 0 5 0 51 11c9 2 58 8 75 43c25 50 1 219 -4 230
c-4 10 -24 67 -29 80v0v3v0c-5 14 -15 70 -17 77c-3 7 -10 85 -12 95c0 9 1 26 1 32v0c-22 2 -34 4 -34 4c3 108 52 187 69 202c0 1 0 2 -1 3c-7 18 -37 31 -45 32c-10 1 -44 10 -50 13c-5 3 -15 16 -14 23c0 1 3 -1 4 -1z" />
    <glyph glyph-name="Agrave" unicode="&#xc0;" horiz-adv-x="938" 
 />
    <glyph glyph-name="Eacute" unicode="&#xc9;" horiz-adv-x="471" 
 />
    <glyph glyph-name="Ograve" unicode="&#xd2;" horiz-adv-x="393" 
 />
    <glyph glyph-name="aacute" unicode="&#xe1;" horiz-adv-x="938" 
 />
    <glyph glyph-name="agrave" unicode="&#xe0;" horiz-adv-x="938" 
 />
    <glyph glyph-name="eacute" unicode="&#xe9;" horiz-adv-x="471" 
 />
    <glyph glyph-name="oacute" unicode="&#xf3;" horiz-adv-x="482" 
 />
    <glyph glyph-name="ograve" unicode="&#xf2;" horiz-adv-x="447" 
 />
    </font>
</defs>
</svg>
