<?xml version="1.0" standalone="no"?>
<!DOCTYPE svg PUBLIC "-//W3C//DTD SVG 1.1//EN" "http://www.w3.org/Graphics/SVG/1.1/DTD/svg11.dtd" >
<svg>
<metadata>
Created by FontForge 20090914 at Fri Jun 14 15:54:02 2013
 By www-data
Copyright &#194;&#169; (Ancient). 2011. All Rights Reserved
</metadata>
<defs>
<font id="DeadSpace" horiz-adv-x="1014" >
  <font-face 
    font-family="DeadSpace"
    font-weight="400"
    font-stretch="normal"
    units-per-em="2048"
    panose-1="2 0 5 0 0 0 0 0 0 0"
    ascent="1638"
    descent="-410"
    x-height="1240"
    cap-height="1248"
    bbox="-0.000976562 -0.00195312 1220 1434"
    underline-thickness="150"
    underline-position="-142"
    unicode-range="U+0020-U+F002"
  />
<missing-glyph horiz-adv-x="1024" 
d="M100 0v1434h824v-1434h-824zM150 50h724v1334h-724v-1334zM325 1148c20.667 18.667 40.002 32.998 58.002 42.998c35.333 20 72.666 30 111.999 30c61.333 0 110.666 -15.833 147.999 -47.5s56 -74.167 56 -127.5c0 -32.667 -7.66699 -65.5 -23 -98.5
s-44.333 -76.167 -87 -129.5c-42 -53.333 -75 -97.333 -99 -132s-36 -67.667 -36 -99c0 -25.333 8 -69.666 24 -132.999h-32c-23.333 64.667 -35 114 -35 148c0 50.667 27.167 123.334 81.5 218.001s81.5 167 81.5 217c0 38 -11 68 -33 90s-52.333 33 -91 33
c-25.333 0 -48.333 -5.66699 -69 -17c-17.333 -10 -36 -23.333 -56 -40v45zM389.002 333.998l57 57.999c7.33301 6.66699 14 10 20 10c6.66699 0 14 -3.66699 22 -11l56 -60c6 -7.33301 9 -14 9 -20c0 -7.33301 -3.33301 -14.666 -10 -21.999l-56 -62
c-9.33301 -9.33301 -16.333 -14 -21 -14c-7.33301 0 -14 3.33301 -20 10l-61 71c-4.66699 6 -7 12 -7 18c0 6.66699 3.66699 14 11 22z" />
    <glyph glyph-name=".notdef" horiz-adv-x="1024" 
d="M100 0v1434h824v-1434h-824zM150 50h724v1334h-724v-1334zM325 1148c20.667 18.667 40.002 32.998 58.002 42.998c35.333 20 72.666 30 111.999 30c61.333 0 110.666 -15.833 147.999 -47.5s56 -74.167 56 -127.5c0 -32.667 -7.66699 -65.5 -23 -98.5
s-44.333 -76.167 -87 -129.5c-42 -53.333 -75 -97.333 -99 -132s-36 -67.667 -36 -99c0 -25.333 8 -69.666 24 -132.999h-32c-23.333 64.667 -35 114 -35 148c0 50.667 27.167 123.334 81.5 218.001s81.5 167 81.5 217c0 38 -11 68 -33 90s-52.333 33 -91 33
c-25.333 0 -48.333 -5.66699 -69 -17c-17.333 -10 -36 -23.333 -56 -40v45zM389.002 333.998l57 57.999c7.33301 6.66699 14 10 20 10c6.66699 0 14 -3.66699 22 -11l56 -60c6 -7.33301 9 -14 9 -20c0 -7.33301 -3.33301 -14.666 -10 -21.999l-56 -62
c-9.33301 -9.33301 -16.333 -14 -21 -14c-7.33301 0 -14 3.33301 -20 10l-61 71c-4.66699 6 -7 12 -7 18c0 6.66699 3.66699 14 11 22z" />
    <glyph glyph-name="space" unicode=" " horiz-adv-x="508" 
 />
    <glyph glyph-name="space" unicode="&#xa0;" horiz-adv-x="508" 
 />
    <glyph glyph-name="exclam" unicode="!" horiz-adv-x="532" 
d="M188 1244h36c29.333 -4 44 -10.667 44 -20v-816c35.333 -19.333 63.333 -36.666 84 -51.999c40 -45.333 60 -96 60 -152c0 -96 -52 -162.667 -156 -200c-22.667 -2.66699 -40 -4 -52 -4c-96 0 -162.667 52 -200 156c-2.66699 22.667 -4 40 -4 52
c0 91.333 48 156.666 144 195.999v820c0 9.33301 14.667 16 44 20zM128 200c0 -40 28 -64 84 -72c40 0 64 28 72 84c0 40 -28 64 -84 72c-40 0 -64 -28 -72 -84z" />
    <glyph glyph-name="quotedbl" unicode="&#x22;" horiz-adv-x="672" 
 />
    <glyph glyph-name="numbersign" unicode="#" horiz-adv-x="1336" 
 />
    <glyph glyph-name="dollar" unicode="$" horiz-adv-x="1268" 
d="M44 1248h36.001c29.333 -4 44 -10.667 44 -20v-788h4c61.333 172.667 150.666 346 267.999 520c146.667 192 290.667 288 432 288h44c13.333 -11.333 20 -27.333 20 -48v-28c0 -20.667 -6.66699 -36.667 -20 -48h-12c-245.333 0 -481.333 -337.333 -708 -1012
c-18 -72 -34 -108 -48 -108l-24 -4h-36c-29.333 4 -44 10.667 -44 20v1208c0 9.33301 14.667 16 44 20zM1068 1248h35.999c29.333 -4 44 -10.667 44 -20v-1208c0 -9.33301 -14.667 -16 -44 -20h-36c-29.333 4 -44 10.667 -44 20v788h-4
c-61.333 -172.667 -150.666 -346 -267.999 -520c-146.667 -192 -290.667 -288 -432 -288h-44c-13.333 11.333 -20 27.333 -20 48v28c0 20.667 6.66699 36.667 20 48h12c245.333 0 481.333 337.333 708 1012c18 72 34 108 48 108z" />
    <glyph glyph-name="percent" unicode="%" horiz-adv-x="1340" 
d="M244 1244c12 0 53.334 -50.667 124.001 -152l116 -148c94 180.667 150 280.667 168 300h4c64 -16 96 -38.667 96 -68c-116.667 -215.333 -179.334 -328.666 -188.001 -339.999c117.333 -160 180 -242.667 188 -248c2.66699 0 122.667 217.333 360 652
c6 0 11.333 1.33301 16 4c61.333 -18 92 -40.667 92 -68c-240.667 -438 -368.667 -674 -384 -708c67.333 -83.333 166 -214 296 -392c0 -25.333 -25.333 -50.666 -76 -75.999h-20c-4 1.33301 -93.333 117.333 -268 348h-4c-101.333 -195.333 -165.333 -311.333 -192 -348
h-24c-53.333 17.333 -80 38.666 -80 63.999l216 396c-117.333 160 -180 242.667 -188 248c-238 -438 -368.667 -674 -392 -708h-24c-53.333 17.333 -80 38.666 -80 63.999c274.667 498.667 412 752 412 760l-252 336v12c0 26.667 28 50.667 84 72z" />
    <glyph glyph-name="ampersand" unicode="&#x26;" horiz-adv-x="1683" 
 />
    <glyph glyph-name="quotesingle" unicode="'" horiz-adv-x="346" 
 />
    <glyph glyph-name="parenleft" unicode="(" horiz-adv-x="758" 
 />
    <glyph glyph-name="parenright" unicode=")" horiz-adv-x="758" 
 />
    <glyph glyph-name="asterisk" unicode="*" horiz-adv-x="1024" 
 />
    <glyph glyph-name="plus" unicode="+" 
 />
    <glyph glyph-name="comma" unicode="," horiz-adv-x="557" 
 />
    <glyph glyph-name="hyphen" unicode="-" horiz-adv-x="670" 
 />
    <glyph glyph-name="hyphen" unicode="&#xad;" horiz-adv-x="670" 
 />
    <glyph glyph-name="period" unicode="." horiz-adv-x="557" 
 />
    <glyph glyph-name="slash" unicode="/" horiz-adv-x="569" 
 />
    <glyph glyph-name="zero" unicode="0" horiz-adv-x="1060" 
d="M692 1240h32c81.333 0 148 -54.667 200 -164c10.667 -36.667 16 -70 16 -100v-16c0 -125.333 -58.667 -213.333 -176 -264l-40 -4h-32c-35.333 0 -71.333 13.333 -108 40l-428 -608h760c10.667 0 18.667 -17.333 24 -52v-20c-5.33301 -34.667 -13.333 -52 -24 -52h-884
c-21.333 0 -32 10.667 -32 32v88l500 716c-16 46 -24 82 -24 108v44c0 102 52 182 156 240c24 8 44 12 60 12zM600 960c14 -90.667 50.001 -136.001 108.001 -136.001s92.667 48 104 144c0 58.667 -26.667 102.667 -80 132c-14.667 2.66699 -25.334 4 -32.001 4
c-61.333 -21.333 -92 -54.666 -92 -99.999c-4 0 -6.66699 -14.667 -8 -44z" />
    <glyph glyph-name="one" unicode="1" horiz-adv-x="800" 
d="M604 1248h28.002c32 -6 48 -19.333 48 -40v-636c0 -16 -40 -57.333 -120 -124c-45.333 -42.667 -80 -73.334 -104 -92.001c5.33301 -26.667 8 -50.667 8 -72v-16c0 -125.333 -58.667 -213.333 -176 -264l-40 -4h-32c-84 0 -150.667 56 -200 168
c-10.667 33.333 -16 61.333 -16 84v44c0 102 52 182 156 240c24 8 44 12 60 12h32c49.333 0 98.666 -25.333 147.999 -76c105.333 88.667 158.666 139.334 159.999 152.001v584c0 20.667 16 34 48 40zM124.002 272c12.667 -93.333 48.668 -140 108.001 -140
c58 0 92.667 48 104 144c0 58.667 -26.667 102.667 -80 132c-14.667 2.66699 -25.334 4 -32.001 4c-37.333 0 -68 -30.667 -92 -92c-5.33301 -21.333 -8 -37.333 -8 -48z" />
    <glyph glyph-name="two" unicode="2" horiz-adv-x="752" 
d="M48 1248h28c32 -6 48 -19.333 48 -40v-1168c0 -20.667 -16 -34 -48 -40h-28c-32 6 -48 19.333 -48 40v1168c0 20.667 16 34 48 40zM384 1244h32c81.333 0 148 -54.667 200 -164c10.667 -36.667 16 -70 16 -100v-16c0 -125.333 -58.667 -213.333 -176 -264l-40 -4h-32
c-83.333 0 -150 56 -200 168c-10.667 33.333 -16 61.333 -16 84v44c0 102 52 182 156 240c24 8 44 12 60 12zM292 964c14 -90.667 50.001 -136.001 108.001 -136.001s92.667 48 104 144c0 58.667 -26.667 102.667 -80 132c-14.667 2.66699 -25.334 4 -32.001 4
c-61.333 -21.333 -92 -54.666 -92 -99.999c-4 0 -6.66699 -14.667 -8 -44z" />
    <glyph glyph-name="three" unicode="3" horiz-adv-x="932" 
d="M696 1248h84c21.333 0 32 -10.667 32 -32v-1192c0 -10.667 -21.333 -18.667 -64 -24c-40 6 -60 14 -60 24v1096h-4c-88 -7.33301 -188 -51.333 -300 -132c-98 -94 -168.667 -192.667 -212 -296c-24.667 -93.333 -50 -140 -76 -140h-68c-18.667 0 -28 9.33301 -28 28
c13.333 130 90.666 279.333 231.999 448c146.667 146.667 301.334 220 464.001 220z" />
    <glyph glyph-name="four" unicode="4" horiz-adv-x="1052" 
d="M16 1244l96.002 -0.000976562c18 0 40.667 -30.667 68 -92c386 -684.667 596.667 -1062 632 -1132v-8c-1.33301 -8 -12 -12 -32 -12h-76c-20.667 0 -50 40 -88 120c-122.667 218.667 -185.334 328 -188.001 328c-194 -295.333 -294 -444.666 -300 -447.999h-120
c-5.33301 0 -8 2.66699 -8 8v8c2 16 55.333 101.333 160 256c133.333 200.667 200 302 200 304l-360 644c5.33301 16 10.666 24 15.999 24zM684.002 1120h32c81.333 0 148 -54.667 200 -164c10.667 -36.667 16 -70 16 -100v-16c0 -125.333 -58.667 -213.333 -176 -264
l-40 -4h-32c-83.333 0 -150 56 -200 168c-10.667 33.333 -16 61.333 -16 84v44c0 102 52 182 156 240c24 8 44 12 60 12zM592.002 843.999c12.667 -93.333 48.668 -140 108.001 -140c58 0 92.667 48 104 144c0 58.667 -26.667 102.667 -80 132
c-14.667 2.66699 -25.334 4 -32.001 4c-37.333 0 -68 -30.667 -92 -92c-5.33301 -21.333 -8 -37.333 -8 -48z" />
    <glyph glyph-name="five" unicode="5" horiz-adv-x="1048" 
d="M52 1244l20.001 0.00195312c22.667 0 40 -8 52 -24v-1020l212 256v4c-88 91.333 -132 191.333 -132 300v16c0 166.667 97.333 302.667 292 408c98 40 190 60 276 60h132c10.667 0 18.667 -17.333 24 -52v-20c-5.33301 -34.667 -13.333 -52 -24 -52
c-314.667 0 -501.334 -93.333 -560.001 -280c-8 -30.667 -12 -57.334 -12 -80.001c0 -102.667 61.333 -196 184 -280v-4c-228 -278.667 -360 -437.334 -396 -476.001h-88c-21.333 0 -32 10.667 -32 32v1176c-0 24 17.333 36 52 36zM692.001 992.002
c96 0 162.667 -51.999 200 -155.999c2.66699 -22.667 4 -40 4 -52c0 -96 -52 -162.667 -156 -200c-22.667 -2.66699 -40 -4 -52 -4c-103.333 0 -170 56 -200 168c-2.66699 9.33301 -4 22.666 -4 39.999c0 96 52 162.667 156 200c22.667 2.66699 40 4 52 4zM612.001 780.003
c0 -40 28 -64 84 -72c40 0 64 28 72 84c0 40 -28 64 -84 72c-40 0 -64 -28 -72 -84z" />
    <glyph glyph-name="six" unicode="6" horiz-adv-x="1080" 
d="M24 1248h912c10.667 0 18.667 -17.333 24 -52v-20c-5.33301 -34.667 -13.333 -52 -24 -52h-436v-1100c0 -10.667 -21.333 -18.667 -64 -24c-40 6 -60 14 -60 24v1100h-352c-16 9.33301 -24 25.333 -24 48v28c0 22.667 8 38.667 24 48zM752 1072
c103.333 0 170 -56.001 200 -168.001c2.66699 -9.33301 4 -22.666 4 -39.999c0 -96 -52 -162.667 -156 -200c-22.667 -2.66699 -40 -4 -52 -4c-96 0 -162.667 52 -200 156c-2.66699 22.667 -4 40 -4 52c0 96 52 162.667 156 200c22.667 2.66699 40 4 52 4zM672 859.999
c0 -40 28 -64 84 -72c40 0 64 28 72 84c0 40 -28 64 -84 72c-40 0 -64 -28 -72 -84z" />
    <glyph glyph-name="seven" unicode="7" horiz-adv-x="1036" 
d="M856 1248c40 -6 60 -14 60 -24v-340l-792 -580v-280c0 -10.667 -21.333 -18.667 -64 -24c-40 6 -60 14 -60 24v344c11.333 14 275.333 206 792 576v268c0 24 21.333 36 64 36z" />
    <glyph glyph-name="eight" unicode="8" horiz-adv-x="1064" 
d="M216 1244h32c81.333 0 148 -54.667 200 -164c10.667 -36.667 16 -70 16 -100v-16c0 -125.333 -58.667 -213.333 -176 -264l-40 -4h-32c-83.333 0 -150 56 -200 168c-10.667 33.333 -16 61.333 -16 84v44c0 102 52 182 156 240c24 8 44 12 60 12zM916 1244
c4 0 8 -3.99902 12 -11.999c0 -10.667 -61.333 -101.334 -184 -272.001l-588 -836h764c10.667 0 18.667 -17.333 24 -52v-20c-5.33301 -34.667 -13.333 -52 -24 -52h-888c-21.333 0 -32 10.667 -32 32v88l792 1124h124zM124 968.001
c12.667 -93.333 48.668 -140 108.001 -140c58 0 92.667 48 104 144c0 58.667 -26.667 102.667 -80 132c-14.667 2.66699 -25.334 4 -32.001 4c-37.333 0 -68 -30.667 -92 -92c-5.33301 -25.333 -8 -41.333 -8 -48z" />
    <glyph glyph-name="nine" unicode="9" horiz-adv-x="1068" 
d="M876 1240c31.333 0 55.333 -33.332 72 -99.999c0 -16 -25.333 -37.333 -76 -64c-332 -220 -576 -537.333 -732 -952h780c10.667 0 18.667 -17.333 24 -52v-20c-5.33301 -34.667 -13.333 -52 -24 -52h-884c-24 3.33301 -36 15.333 -36 36v84
c67.333 239.333 199.333 476.666 396 711.999c186 192.667 318 310 396 352c0 2 28 20.667 84 56z" />
    <glyph glyph-name="colon" unicode=":" horiz-adv-x="557" 
 />
    <glyph glyph-name="semicolon" unicode=";" horiz-adv-x="557" 
 />
    <glyph glyph-name="semicolon" unicode="&#x37e;" horiz-adv-x="557" 
 />
    <glyph glyph-name="less" unicode="&#x3c;" 
 />
    <glyph glyph-name="equal" unicode="=" 
 />
    <glyph glyph-name="greater" unicode="&#x3e;" 
 />
    <glyph glyph-name="question" unicode="?" horiz-adv-x="532" 
d="M188 1244l36 0.000976562c29.333 -4 44 -10.667 44 -20v-684c35.333 -19.333 63.333 -36.666 84 -51.999c40 -45.333 60 -96 60 -152c0 -96 -52 -162.667 -156 -200c-22.667 -2.66699 -40 -4 -52 -4c-103.333 0 -170 56 -200 168c-2.66699 9.33301 -4 22.666 -4 39.999
c0 91.333 48 156.666 144 195.999v688c0 9.33301 14.667 16 44 20zM128 332.001c0 -40 28 -64 84 -72c40 0 64 28 72 84c0 40 -28 64 -84 72c-40 0 -64 -28 -72 -84zM20 124.001h372c9.33301 0 16 -14.667 20 -44v-36c-4 -29.333 -10.667 -44 -20 -44h-372
c-9.33301 0 -16 14.667 -20 44v36c4 29.333 10.667 44 20 44z" />
    <glyph glyph-name="at" unicode="@" horiz-adv-x="608" 
d="M240 1244h8c106 0 182 -56 228 -168c8 -28.667 12 -52.667 12 -72v-8c0 -106 -56 -182 -168 -228c-28.667 -8 -52.667 -12 -72 -12h-8c-106 0 -182 56 -228 168c-8 28.667 -12 52.667 -12 72v8c0 106 56 182 168 228c28.667 8 52.667 12 72 12zM132 1000
c14.667 -74.667 52 -112 112 -112s97.333 37.333 112 112c0 60 -37.333 97.333 -112 112c-74.667 -14.667 -112 -52 -112 -112zM240 488h8c106 0 182 -56 228 -168c8 -28.667 12 -52.667 12 -72v-8c0 -106 -56 -182 -168 -228c-28.667 -8 -52.667 -12 -72 -12h-8
c-106 0 -182 56 -228 168c-8 28.667 -12 52.667 -12 72v8c0 106 56 182 168 228c28.667 8 52.667 12 72 12zM132 244c14.667 -74.667 52 -112 112 -112s97.333 37.333 112 112c0 60 -37.333 97.333 -112 112c-74.667 -14.667 -112 -52 -112 -112z" />
    <glyph glyph-name="A" unicode="A" horiz-adv-x="1048" 
d="M524 1248h4c40 -4.66699 60 -24.667 60 -60v-640c34 18.667 64.667 28 92 28h32c81.333 0 148 -54.667 200 -164c10.667 -36.667 16 -70 16 -100v-16c0 -125.333 -58.667 -213.333 -176 -264l-40 -4h-32c-83.333 0 -150 56 -200 168c-10.667 33.333 -16 61.333 -16 84
v580h-4l-180 -440c-101.333 -254.667 -157.333 -390.667 -168 -408c-17.333 -8 -30.666 -12 -39.999 -12h-20c-30.667 -0 -48 13.333 -52 40v1128c0 20.667 16 34 48 40h28c32 -6 48 -19.333 48 -40v-784h4l356 852c17.333 8 30.666 12 39.999 12zM588 300
c12.667 -93.333 48.668 -140 108.001 -140c58 0 92.667 48 104 144c0 58.667 -26.667 102.667 -80 132c-14.667 2.66699 -25.334 4 -32.001 4c-37.333 0 -68 -30.667 -92 -92c-5.33301 -25.333 -8 -41.333 -8 -48z" />
    <glyph glyph-name="B" unicode="B" horiz-adv-x="872" 
d="M64 1248c40 -6 60.001 -13.999 60.001 -23.999v-352c11.333 -10 66 -42 164 -96h4v120c243.333 230 368.666 346 375.999 348l8 4c50.667 -20.667 76 -50 76 -88c0 -4.66699 -112 -111.334 -336 -320.001v-136c200.667 -109.333 312.667 -173.333 336 -192v-488
c0 -10.667 -21.333 -18.667 -64 -24c-40 6 -60 14 -60 24v416l-628 356v416c-0 24 21.333 36 64 36zM252.001 552.001h32c81.333 0 148 -54.667 200 -164c10.667 -36.667 16 -70 16 -100v-16c0 -125.333 -58.667 -213.333 -176 -264l-40 -4h-32c-83.333 0 -150 56 -200 168
c-10.667 33.333 -16 61.333 -16 84v44c0 102 52 182 156 240c24 8 44 12 60 12zM160.001 276.001c12.667 -93.333 48.668 -140 108.001 -140c58 0 92.667 48 104 144c0 58.667 -26.667 102.667 -80 132c-14.667 2.66699 -25.334 4 -32.001 4c-37.333 0 -68 -30.667 -92 -92
c-5.33301 -25.333 -8 -41.333 -8 -48z" />
    <glyph glyph-name="C" unicode="C" horiz-adv-x="1000" 
d="M216 1244l32 -0.000976562c92.667 0 162 -65.333 208 -196c2.66699 -17.333 4 -34.666 4 -51.999v-720h4c47.333 24 90 36 128 36h28c40.667 0 86 -13.333 136 -40v932c0 20.667 16 34 48 40h24c30.667 0 48 -13.333 52 -40v-1164c-4 -26.667 -21.333 -40 -52 -40h-20
c-37.333 -0 -56 25.333 -56 76c-34 66.667 -82 100 -144 100c-47.333 0 -90 -25.333 -128 -76c-18 -64 -34 -96 -48 -96l-24 -4h-20c-30.667 -0 -48 13.333 -52 40v680h-4c-30 -16 -58 -24 -84 -24h-32c-83.333 0 -150 56 -200 168c-10.667 33.333 -16 61.333 -16 84v44
c0 102 52 182 156 240c24 8 44 12 60 12zM124 963.999c14 -90.667 50.001 -136.001 108.001 -136.001s92.667 48 104 144c0 58.667 -26.667 102.667 -80 132c-14.667 2.66699 -25.334 4 -32.001 4c-61.333 -21.333 -92 -54.666 -92 -99.999c-4 0 -6.66699 -14.667 -8 -44z
" />
    <glyph glyph-name="D" unicode="D" horiz-adv-x="1116" 
d="M40 1244l739.999 0.00195312c81.333 0 148 -54.667 200 -164c10.667 -36.667 16 -70 16 -100v-16c0 -125.333 -58.667 -213.333 -176 -264l-40 -4h-32c-83.333 0 -150 56 -200 168c-10.667 33.333 -16 61.333 -16 84v44c0 38 12 80.667 36 128h-140v-368
c0 -6.66699 -32 -18.667 -96 -36c-136 -68.667 -204 -162 -204 -280c0 -126.667 81.333 -224 244 -292c57.333 -13.333 104 -20 140 -20c74.667 10.667 117.334 16 128.001 16c26.667 -22.667 40 -46.667 40 -72v-16c0 -34.667 -52 -52 -156 -52h-28
c-184 0 -328 74.667 -432 224c-42.667 66.667 -64 133.334 -64 200.001v28c0 154 90.667 279.333 272 376c21.333 5.33301 32 10.666 32 15.999v276h-264c-18.667 11.333 -28 28.666 -28 51.999v20c0 23.333 9.33301 40.666 28 51.999zM655.999 964.002
c14 -90.667 50.001 -136.001 108.001 -136.001s92.667 48 104 144c0 58.667 -26.667 102.667 -80 132c-14.667 2.66699 -25.334 4 -32.001 4c-61.333 -21.333 -92 -54.666 -92 -99.999c-4 0 -6.66699 -14.667 -8 -44z" />
    <glyph glyph-name="E" unicode="E" horiz-adv-x="1088" 
d="M256 1248l27.998 0.000976562c32 -6 48 -19.333 48 -40v-624c0 -18.667 38.667 -49.334 116 -92.001c0.666992 -2.66699 18 -14.667 52 -36h4v540c0 102 52 182 156 240c24 8 44 12 60 12h32c81.333 0 148 -54.667 200 -164c10.667 -36.667 16 -70 16 -100v-16
c0 -125.333 -58.667 -213.333 -176 -264l-40 -4h-32c-27.333 0 -58 9.33301 -92 28v-664c0 -38.667 -22.667 -60 -68 -64c-9.33301 -0 -62.666 33.333 -159.999 100c-258.667 168.667 -392 259.334 -400 272.001v812c0 20.667 16 34 48 40h28c32 -6 48 -19.333 48 -40v-732
c0 -18.667 32 -45.334 96 -80.001c126.667 -86.667 221.334 -149.334 284.001 -188.001v116c-192.667 128.667 -290 195.334 -292 200.001c-2.66699 4.66699 -4 10 -4 16v692c0 20.667 16 34 48 40zM627.998 972.001c12.667 -93.333 48.668 -140 108.001 -140
c58 0 92.667 48 104 144c0 58.667 -26.667 102.667 -80 132c-14.667 2.66699 -25.334 4 -32.001 4c-37.333 0 -68 -30.667 -92 -92c-5.33301 -25.333 -8 -41.333 -8 -48z" />
    <glyph glyph-name="F" unicode="F" horiz-adv-x="1076" 
d="M216 1252h32.001c78 0 142 -49.333 192 -148c16 -32 24 -69.333 24 -112v-488c60.667 53.333 116.667 80 168 80h28c108.667 0 199.334 -85.333 272.001 -256c16 -66.667 24 -126.667 24 -180v-28c0 -72 -9.33301 -108 -28 -108c-22.667 -5.33301 -37.334 -8 -44.001 -8
c-40 6 -60 14 -60 24c5.33301 56.667 8 92.667 8 108c0 130.667 -44 228 -132 292c-24 8 -40 12 -48 12h-8c-70.667 0 -125.334 -64 -164.001 -192c-10.667 -38.667 -16 -84 -16 -136v-88c0 -10.667 -21.333 -18.667 -64 -24c-40 6 -60 14 -60 24v708
c-34 -18.667 -64.667 -28 -92 -28h-32c-83.333 0 -150 56 -200 168c-10.667 33.333 -16 61.333 -16 84v44c0 102 52 182 156 240c24 8 44 12 60 12zM124.001 976c12.667 -93.333 48.668 -140 108.001 -140c58 0 92.667 48 104 144c0 58.667 -26.667 102.667 -80 132
c-14.667 2.66699 -25.334 4 -32.001 4c-37.333 0 -68 -30.667 -92 -92c-5.33301 -25.333 -8 -41.333 -8 -48z" />
    <glyph glyph-name="G" unicode="G" horiz-adv-x="1040" 
d="M844 1240h19.999c22.667 0 40 -8 52 -24v-684l-4 -8c-90.667 26.667 -182.667 40 -276 40c-238 0 -399.333 -54.667 -484 -164c-10.667 -18 -16 -36.667 -16 -56c0 -82.667 97.333 -148 292 -196c75.333 -13.333 146 -20 212 -20c32.667 0 104.667 6.66699 216 20
c42.667 -5.33301 64 -26.666 64 -63.999s-26.667 -60 -80 -68c-64 -10.667 -124 -16 -180 -16h-44c-244 0 -432 68 -564 204c-34.667 47.333 -52 90 -52 128v28c0 109.333 97.333 202.666 292 279.999c112 34.667 218.667 52 320 52h52c42.667 0 85.334 -2.66699 128.001 -8
v520c0 24 17.333 36 52 36zM395.999 1124c96 0 162.667 -52 200 -156c2.66699 -22.667 4 -40 4 -52c0 -96 -52 -162.667 -156 -200c-22.667 -2.66699 -40 -4 -52 -4c-96 0 -162.667 52 -200 156c-2.66699 22.667 -4 40 -4 52c0 96 52 162.667 156 200
c22.667 2.66699 40 4 52 4zM315.999 912c0 -40 28 -64 84 -72c40 0 64 28 72 84c0 40 -28 64 -84 72c-40 0 -64 -28 -72 -84z" />
    <glyph glyph-name="H" unicode="H" horiz-adv-x="1072" 
d="M64 1248c40 -6 60 -14.001 60 -24.001v-520h764c42.667 -5.33301 64 -26.666 64 -63.999v-616c0 -10.667 -21.333 -18.667 -64 -24c-40 6 -60 14 -60 24v556h-768c-33.333 0 -53.333 22.667 -60 68v576c-0 10.667 21.333 18.667 64 24zM428 551.999h32
c81.333 0 148 -54.667 200 -164c10.667 -36.667 16 -70 16 -100v-16c0 -125.333 -58.667 -213.333 -176 -264l-40 -4h-32c-83.333 0 -150 56 -200 168c-10.667 33.333 -16 61.333 -16 84v44c0 102 52 182 156 240c24 8 44 12 60 12zM336 275.999
c12.667 -93.333 48.668 -140 108.001 -140c58 0 92.667 48 104 144c0 58.667 -26.667 102.667 -80 132c-14.667 2.66699 -25.334 4 -32.001 4c-37.333 0 -68 -30.667 -92 -92c-5.33301 -25.333 -8 -41.333 -8 -48z" />
    <glyph glyph-name="I" unicode="I" horiz-adv-x="1072" 
d="M64 1248l32.001 0.000976562c221.333 0 430.666 -144 627.999 -432c92 -142.667 160 -333.334 204 -572.001c16 -76 24 -150.667 24 -224c-19.333 -13.333 -40.666 -20 -63.999 -20c-42.667 0 -64 18.667 -64 56c-22.667 198 -64 367.333 -124 508
c-53.333 126 -125.333 240.667 -216 344c-98.667 98 -189.334 159.333 -272.001 184c-50 16 -79.333 24 -88 24v-1092c0 -10.667 -21.333 -18.667 -64 -24c-40 6 -60 14 -60 24v1148c-0 50.667 21.333 76 64 76zM424.001 552.001h32c81.333 0 148 -54.667 200 -164
c10.667 -36.667 16 -70 16 -100v-16c0 -125.333 -58.667 -213.333 -176 -264l-40 -4h-32c-83.333 0 -150 56 -200 168c-10.667 33.333 -16 61.333 -16 84v44c0 102 52 182 156 240c24 8 44 12 60 12zM332.001 276.001c12.667 -93.333 48.668 -140 108.001 -140
c58 0 92.667 48 104 144c0 58.667 -26.667 102.667 -80 132c-14.667 2.66699 -25.334 4 -32.001 4c-37.333 0 -68 -30.667 -92 -92c-5.33301 -25.333 -8 -41.333 -8 -48z" />
    <glyph glyph-name="J" unicode="J" horiz-adv-x="1060" 
d="M400 1244h12c116 0 232 -97.333 348 -292c120 -234.667 180 -508 180 -820v-100c0 -21.333 -10.667 -32 -32 -32h-884c-16 9.33301 -24 25.333 -24 48v28c0 22.667 8 38.667 24 48h792c0 298.667 -70.667 574.667 -212 828c-46.667 64 -82.667 102.667 -108 116h-4v-324
c0 -10.667 -21.333 -18.667 -64 -24c-40 6 -60 14 -60 24v468c0 21.333 10.667 32 32 32zM216 708h32c81.333 0 148 -54.667 200 -164c10.667 -36.667 16 -70 16 -100v-16c0 -125.333 -58.667 -213.333 -176 -264l-40 -4h-32c-83.333 0 -150 56 -200 168
c-10.667 33.333 -16 61.333 -16 84v44c0 102 52 182 156 240c24 8 44 12 60 12zM124 432c12.667 -93.333 48.668 -140 108.001 -140c58 0 92.667 48 104 144c0 58.667 -26.667 102.667 -80 132c-14.667 2.66699 -25.334 4 -32.001 4c-37.333 0 -68 -30.667 -92 -92
c-5.33301 -25.333 -8 -41.333 -8 -48z" />
    <glyph glyph-name="K" unicode="K" horiz-adv-x="1080" 
d="M736 1248l28 -0.00195312c16 -9.33301 24 -21.333 24 -36v-672c114.667 -48 172 -133.333 172 -256v-16c0 -125.333 -58.667 -213.333 -176 -264l-40 -4h-32c-83.333 0 -150 56 -200 168c-10.667 33.333 -16 61.333 -16 84v44c0 104.667 56 187.334 168 248.001v556
c-144.667 -52 -268.667 -180 -372 -384c-99.333 -229.333 -155.333 -453.333 -168 -672c0 -29.333 -18.667 -44 -56 -44h-8c-40 6 -60 14 -60 24c0 260.667 62.667 523.334 188 788.001c119.333 210 254 344.667 404 404c50.667 21.333 98.667 32 144 32zM620 271.998
c12.667 -93.333 48.668 -140 108.001 -140c58 0 92.667 48 104 144c0 58.667 -26.667 102.667 -80 132c-14.667 2.66699 -25.334 4 -32.001 4c-37.333 0 -68 -30.667 -92 -92c-5.33301 -21.333 -8 -37.333 -8 -48z" />
    <glyph glyph-name="L" unicode="L" horiz-adv-x="896" 
d="M52 1248h20c32 0 61.333 -30.667 88 -92c60 -53.333 133.333 -80 220 -80c122 0 214 52 276 156c17.333 8 30.666 12 39.999 12h20c40 -6 60 -22 60 -48c-28 -79.333 -81.333 -142 -160 -188c-71.333 -40 -148.666 -60 -231.999 -60h-12c-90.667 0 -172 22.667 -244 68
h-4v-976c-4 -26.667 -21.333 -40 -52 -40h-20c-30.667 -0 -48 13.333 -52 40v1168c4 26.667 21.333 40 52 40z" />
    <glyph glyph-name="M" unicode="M" horiz-adv-x="1004" 
d="M424 1252l36 0.000976562c126 0 238 -82.667 336 -248c58.667 -114 88 -235.333 88 -364v-28c0 -204 -65.333 -373.333 -196 -508c-76 -69.333 -152 -104 -228 -104h-36c-138.667 0 -258.667 97.333 -360 292c-42.667 110 -64 216.667 -64 320v28
c-0 203.333 65.333 372.666 196 507.999c78 69.333 154 104 228 104zM140 624.001c0 -203.333 66.666 -355.334 199.999 -456.001c40.667 -18.667 75.334 -28 104.001 -28c122 0 215.333 104 280 312c13.333 72 20 130.667 20 176c0 196.667 -64 347.334 -192 452.001
c-44.667 21.333 -82 32 -112 32c-122 0 -215.333 -104 -280 -312c-13.333 -72 -20 -130.667 -20 -176zM435.999 924h12c94.667 0 160 -76 196 -228c2.66699 -16.667 4 -35.334 4 -56.001v-20c0 -134 -53.333 -227.333 -160 -280l-40 -4h-12c-94.667 0 -160 76 -196 228
c-2.66699 16.667 -4 35.334 -4 56.001v20c0 134 53.333 227.333 160 280zM367.999 632c8.66699 -104 34 -156 76 -156c38 0 62 52 72 156c-8.66699 104 -34 156 -76 156c-34 0 -58 -45.333 -72 -136v-20z" />
    <glyph glyph-name="N" unicode="N" horiz-adv-x="888" 
d="M28 1248l676 0.00195312c42.667 -6 64 -27.333 64 -64v-32c0 -238.667 -113.333 -441.334 -340 -608.001c-120 -72 -213.333 -108 -280 -108v-396c0 -20.667 -16 -34 -48 -40h-28c-32 6 -48 19.333 -48 40v320c0 36.667 -1.33301 84.667 -4 144c0 34.667 17.333 52 52 52
c74.667 0 174.667 37.333 300 112c107.333 66.667 190 188 248 364c13.333 52.667 20 83.334 20 92.001h-612c-18.667 11.333 -28 28.666 -28 51.999v20c-0 23.333 9.33301 40.666 28 51.999z" />
    <glyph glyph-name="O" unicode="O" horiz-adv-x="868" 
d="M500 1240h32c81.333 0 148 -54.667 200 -164c10.667 -36.667 16 -70 16 -100v-16c0 -78 -28 -148.667 -84 -212v-708c-4 -26.667 -21.333 -40 -52 -40h-20c-30.667 -0 -48 13.333 -52 40v652h-40c-60.667 0 -114 32 -160 96h-4l-204 -260c-5.33301 -10 -8 -20.667 -8 -32
v-456c-4 -26.667 -21.333 -40 -52 -40h-20c-30.667 -0 -48 13.333 -52 40v516c0 15.333 80 118 240 308c29.333 36 44 58.667 44 68v56c0 102 52 182 156 240c24 8 44 12 60 12zM408 964c12.667 -93.333 48.668 -140 108.001 -140c58 0 92.667 48 104 144
c0 58.667 -26.667 102.667 -80 132c-14.667 2.66699 -25.334 4 -32.001 4c-37.333 0 -68 -30.667 -92 -92c-5.33301 -25.333 -8 -41.333 -8 -48z" />
    <glyph glyph-name="P" unicode="P" horiz-adv-x="1092" 
d="M60 1244l8 -0.000976562c23.333 -7.33301 126 -68.666 308 -183.999c379.333 -234.667 578 -360 596 -376v-644c-4 -26.667 -21.333 -40 -52 -40h-20c-30.667 -0 -48 13.333 -52 40v560c0 19.333 -41.333 50 -124 92l-720 452l-4 20v4c0 38 20 63.333 60 76zM132 931.999
l8 -0.000976562c10 0 207.333 -121.333 592 -364c40 -17.333 60 -34.666 60 -51.999v-476c-4 -26.667 -21.333 -40 -52 -40h-20c-30.667 0 -48 13.333 -52 40v404c0 18 -30.667 42 -92 72l-500 316l-4 20v4c0 38 20 63.333 60 76zM376 547.998h32
c81.333 0 148 -54.667 200 -164c10.667 -36.667 16 -70 16 -100v-16c0 -125.333 -58.667 -213.333 -176 -264l-40 -4h-32c-83.333 0 -150 56 -200 168c-10.667 33.333 -16 61.333 -16 84v44c0 102 52 182 156 240c24 8 44 12 60 12zM284 271.998
c12.667 -93.333 48.668 -140 108.001 -140c57.333 0 92 48 104 144c0 58.667 -26.667 102.667 -80 132c-14.667 2.66699 -25.334 4 -32.001 4c-37.333 0 -68 -30.667 -92 -92c-5.33301 -21.333 -8 -37.333 -8 -48z" />
    <glyph glyph-name="Q" unicode="Q" horiz-adv-x="1060" 
d="M544 1252c56 -21.333 84 -45.335 84 -72.002v-4l-144 -212c262.667 -185.333 414.667 -294.666 456 -327.999v-612c0 -9.33301 -14.667 -16 -44 -20h-36c-29.333 4 -44 10.667 -44 20v552c-42 26 -176.667 120.667 -404 284l-316 -448h-4c-61.333 24 -92 49.333 -92 76
c332.667 484.667 510 739.334 532 764.001h12zM440 539.998h28.001c107.333 0 188.666 -61.333 243.999 -184c8 -28.667 12 -52.667 12 -72v-28c0 -102.667 -57.333 -182.667 -172 -240c-31.333 -10.667 -59.333 -16 -84 -16h-20c-106 0 -186 50.667 -240 152
c-16 32 -24 69.333 -24 112v20c0 119.333 70.667 203.333 212 252c18 2.66699 32.667 4 44 4zM292.001 263.998c21.333 -104 76 -156 164 -156c104 21.333 156 76 156 164c-21.333 104 -76 156 -164 156c-104 -21.333 -156 -76 -156 -164z" />
    <glyph glyph-name="R" unicode="R" horiz-adv-x="1116" 
d="M216 1244l31.999 0.000976562c81.333 0 148 -54.667 200 -164c10.667 -36.667 16 -70 16 -100v-16c0 -50.667 -12 -98.667 -36 -144h508c33.333 0 53.333 -21.333 60 -64v-32c0 -238.667 -113.333 -441.334 -340 -608.001c-118.667 -77.333 -240 -116 -364 -116h-32
c-18.667 11.333 -28 28.666 -28 51.999v20c0 37.333 26.667 56 80 56c94 10.667 198 53.334 312 128.001c108.667 79.333 187.334 210 236.001 392c0 5.33301 2.66699 21.333 8 48h-652c-83.333 0 -150 56 -200 168c-10.667 33.333 -16 61.333 -16 84v44
c0 102 52 182 156 240c24 8 44 12 60 12zM123.999 968.001c12.667 -93.333 48.668 -140 108.001 -140c58 0 92.667 48 104 144c0 58.667 -26.667 102.667 -80 132c-14.667 2.66699 -25.334 4 -32.001 4c-37.333 0 -68 -30.667 -92 -92c-5.33301 -25.333 -8 -41.333 -8 -48z
" />
    <glyph glyph-name="S" unicode="S" horiz-adv-x="996" 
d="M444 1252l27.999 -0.00195312c32 -6 48 -19.333 48 -40v-440h328c18.667 -11.333 28 -28.666 28 -51.999v-20c0 -23.333 -9.33301 -40.666 -28 -51.999h-328v-596c0 -28.667 -18.667 -46 -56 -52h-44c-133.333 0 -250.666 92 -351.999 276
c-45.333 113.333 -68 204 -68 272c15.333 24 35.333 36 60 36h24c33.333 0 53.333 -20 60 -60c13.333 -104.667 46.666 -192.667 99.999 -264c54.667 -74.667 105.334 -112 152.001 -112v1064c0 20.667 16 34 48 40z" />
    <glyph glyph-name="T" unicode="T" horiz-adv-x="1072" 
d="M28 1248l868 0.000976562c30 0 48.667 -21.333 56 -64v-12c0 -76 -57.333 -245.333 -172 -508c-69.333 -147.333 -164 -300.666 -284 -459.999c-102 -120 -168.667 -188 -200 -204h-136c-14 0 -23.333 5.33301 -28 16c0 3.33301 46.667 47.333 140 132
c157.333 176 288 372 392 588c48.667 107.333 96.667 235.333 144 384l-8 4h-772c-18.667 11.333 -28 28.666 -28 51.999v20c-0 23.333 9.33301 40.666 28 51.999zM228 1096h32c81.333 0 148 -54.667 200 -164c10.667 -36.667 16 -70 16 -100v-16
c0 -125.333 -58.667 -213.333 -176 -264l-40 -4h-32c-83.333 0 -150 56 -200 168c-10.667 33.333 -16 61.333 -16 84v44c0 102 52 182 156 240c24 8 44 12 60 12zM136 820.001c12.667 -93.333 48.668 -140 108.001 -140c58 0 92.667 48 104 144
c0 58.667 -26.667 102.667 -80 132c-14.667 2.66699 -25.334 4 -32.001 4c-37.333 0 -68 -30.667 -92 -92c-5.33301 -25.333 -8 -41.333 -8 -48z" />
    <glyph glyph-name="U" unicode="U" horiz-adv-x="1068" 
d="M64 1252c40 -6 60 -13.999 60 -23.999v-748h4c31.333 98 96.666 228.667 195.999 392c50 70.667 119.333 148 208 232c123.333 96 227.333 144 312 144h72c21.333 0 32 -10.667 32 -32v-1192c0 -10.667 -21.333 -18.667 -64 -24c-40 6 -60 14 -60 24v1084
c-82 -14 -174 -71.333 -276 -172c-115.333 -142.667 -200.666 -277.334 -255.999 -404.001c-74.667 -180 -132 -353.333 -172 -520l-12 -8h-92c-10.667 4.66699 -16 14 -16 28v1184c-0 24 21.333 36 64 36z" />
    <glyph glyph-name="V" unicode="V" horiz-adv-x="1124" 
d="M488 1244h32c81.333 0 148 -54.667 200 -164c10.667 -36.667 16 -70 16 -100v-16c0 -125.333 -58.667 -213.333 -176 -264l-40 -4h-32c-83.333 0 -150 56 -200 168c-10.667 33.333 -16 61.333 -16 84v44c0 102 52 182 156 240c24 8 44 12 60 12zM80 1216
c32.667 0 54 -31.998 64 -95.998c78.667 -217.333 184 -421.333 316 -612c26 -34 40.667 -51.333 44 -52c118 156.667 215.333 324.667 292 504c29.333 71.333 60 152.666 92 243.999c15.333 8 28.666 12 39.999 12c50.667 -10.667 76 -30.667 76 -60v-16
c-75.333 -270 -214 -535.333 -416 -796c142.667 -146.667 261.334 -249.334 356.001 -308.001c8 -2.66699 12 -10.667 12 -24c0 -4 -4 -8 -12 -12h-160c-20.667 -0 -62 29.333 -124 88l-160 156c-156 -162 -246.667 -243.333 -272 -244h-168c-4 0 -8 4 -12 12
c0 18 40 51.333 120 100c78 60 160.667 138.667 248 236c-201.333 255.333 -340 519.333 -416 792v16c11.333 40 38 60 80 60zM396 964.002c14 -90.667 50.002 -136.001 108.002 -136.001s92.667 48 104 144c0 58.667 -26.667 102.667 -80 132
c-14.667 2.66699 -25.334 4 -32.001 4c-61.333 -21.333 -92 -54.666 -92 -99.999c-4.66699 0 -7.33398 -14.667 -8.00098 -44z" />
    <glyph glyph-name="W" unicode="W" horiz-adv-x="1036" 
d="M844 1248h19.998c22.667 0 40 -8 52 -24v-1200c0 -10.667 -21.333 -18.667 -64 -24c-40 6 -60 14 -60 24v308c-75.333 61.333 -160.666 92 -255.999 92c-158 0 -280.667 -78.667 -368 -236c-18 -37.333 -32.667 -93.333 -44 -168
c-19.333 -13.333 -40.666 -20 -63.999 -20c-40 6 -60 14 -60 24v4c0 197.333 94.667 352 284 464c76 40 156 60 240 60h16c81.333 0 165.333 -20 252 -60v720c0 24 17.333 36 52 36zM291.998 1168h32c81.333 0 148 -54.667 200 -164c10.667 -36.667 16 -70 16 -100v-16
c0 -125.333 -58.667 -213.333 -176 -264l-40 -4h-32c-83.333 0 -150 56 -200 168c-10.667 33.333 -16 61.333 -16 84v44c0 102 52 182 156 240c24 8 44 12 60 12zM199.998 892c12.667 -93.333 48.668 -140 108.001 -140c58 0 92.667 48 104 144
c0 58.667 -26.667 102.667 -80 132c-14.667 2.66699 -25.334 4 -32.001 4c-37.333 0 -68 -30.667 -92 -92c-5.33301 -25.333 -8 -41.333 -8 -48z" />
    <glyph glyph-name="X" unicode="X" horiz-adv-x="1060" 
d="M864 1248h4.00098c28.667 0 52.667 -28 72 -84v-12c-16.667 -16.667 -151.334 -116.667 -404.001 -300v-832c0 -9.33301 -14.667 -16 -44 -20h-36c-29.333 4 -44 10.667 -44 20v440c-7.33301 10 -66 52.667 -176 128l-236 172v464c0 9.33301 14.667 16 44 20h36
c29.333 -4 44 -10.667 44 -20v-396c16 -16 112 -85.333 288 -208v292c7.33301 10 158 122 452 336z" />
    <glyph glyph-name="Y" unicode="Y" horiz-adv-x="1072" 
d="M56 1248l868 -0.000976562c18.667 -11.333 28 -28.666 28 -51.999v-20c0 -23.333 -9.33301 -40.666 -28 -51.999h-772c-5.33301 -0.666992 -8 -3.33398 -8 -8.00098c62 -194 135.333 -370 220 -528c68.667 -131.333 179.334 -283.333 332.001 -456
c82.667 -73.333 124 -112 124 -116v-4c-10 -8 -19.333 -12 -28 -12h-132c-20.667 0 -95.334 76 -224.001 228c-156 220 -265.333 414.667 -328 584c-72 184 -108 304 -108 360v12c7.33301 42.667 26 64 56 64zM692 1096l31.999 -0.000976562c92.667 0 162 -65.333 208 -196
c5.33301 -20 8 -38.667 8 -56v-44c0 -98.667 -50.667 -178.667 -152 -240c-29.333 -8 -50.666 -12 -63.999 -12h-32c-81.333 0 -148 54.667 -200 164c-10.667 42 -16 76.667 -16 104v16c0 124.667 60 211.334 180 260.001c14.667 2.66699 26.667 4 36 4zM603.999 815.998
c0 -58.667 26.666 -102.667 79.999 -132c14.667 -2.66699 25.334 -4 32.001 -4c37.333 0 68 30.667 92 92c5.33301 25.333 8 41.333 8 48c-12.667 93.333 -48.667 140 -108 140c-58 0 -92.667 -48 -104 -144z" />
    <glyph glyph-name="Z" unicode="Z" horiz-adv-x="1080" 
d="M24 1244l911.999 -0.000976562c10.667 0 18.667 -17.333 24 -52v-20c-5.33301 -34.667 -13.333 -52 -24 -52h-476c226.667 -190 340 -434 340 -732v-48c0 -159.333 -46.667 -264.666 -140 -315.999c-30 -16 -58 -24 -84 -24h-32c-83.333 0 -150 56 -200 168
c-10.667 33.333 -16 61.333 -16 84v44c0 102 52 182 156 240c24 8 44 12 60 12h32c20.667 0 47.334 -6.66699 80.001 -20v4c-47.333 200 -126 349.333 -236 448c-120.667 93.333 -234 140 -340 140h-56c-16 9.33301 -24 25.333 -24 48v28c0 22.667 8 38.667 24 48z
M451.999 271.999c12.667 -93.333 48.668 -140 108.001 -140c58 0 92.667 48 104 144c0 58.667 -26.667 102.667 -80 132c-14.667 2.66699 -25.334 4 -32.001 4c-37.333 0 -68 -30.667 -92 -92c-5.33301 -25.333 -8 -41.333 -8 -48z" />
    <glyph glyph-name="bracketleft" unicode="[" horiz-adv-x="758" 
 />
    <glyph glyph-name="backslash" unicode="\" horiz-adv-x="569" 
 />
    <glyph glyph-name="bracketright" unicode="]" horiz-adv-x="758" 
 />
    <glyph glyph-name="asciicircum" unicode="^" 
 />
    <glyph glyph-name="underscore" unicode="_" horiz-adv-x="1024" 
 />
    <glyph glyph-name="grave" unicode="`" horiz-adv-x="1024" 
 />
    <glyph glyph-name="a" unicode="a" horiz-adv-x="1048" 
d="M524 1248h4c40 -4.66699 60 -24.667 60 -60v-640c34 18.667 64.667 28 92 28h32c81.333 0 148 -54.667 200 -164c10.667 -36.667 16 -70 16 -100v-16c0 -125.333 -58.667 -213.333 -176 -264l-40 -4h-32c-83.333 0 -150 56 -200 168c-10.667 33.333 -16 61.333 -16 84
v580h-4l-180 -440c-101.333 -254.667 -157.333 -390.667 -168 -408c-17.333 -8 -30.666 -12 -39.999 -12h-20c-30.667 -0 -48 13.333 -52 40v1128c0 20.667 16 34 48 40h28c32 -6 48 -19.333 48 -40v-784h4l356 852c17.333 8 30.666 12 39.999 12zM588 300
c12.667 -93.333 48.668 -140 108.001 -140c58 0 92.667 48 104 144c0 58.667 -26.667 102.667 -80 132c-14.667 2.66699 -25.334 4 -32.001 4c-37.333 0 -68 -30.667 -92 -92c-5.33301 -25.333 -8 -41.333 -8 -48z" />
    <glyph glyph-name="b" unicode="b" horiz-adv-x="872" 
d="M64 1248c40 -6 60.001 -13.999 60.001 -23.999v-352c11.333 -10 66 -42 164 -96h4v120c243.333 230 368.666 346 375.999 348l8 4c50.667 -20.667 76 -50 76 -88c0 -4.66699 -112 -111.334 -336 -320.001v-136c200.667 -109.333 312.667 -173.333 336 -192v-488
c0 -10.667 -21.333 -18.667 -64 -24c-40 6 -60 14 -60 24v416l-628 356v416c-0 24 21.333 36 64 36zM252.001 552.001h32c81.333 0 148 -54.667 200 -164c10.667 -36.667 16 -70 16 -100v-16c0 -125.333 -58.667 -213.333 -176 -264l-40 -4h-32c-83.333 0 -150 56 -200 168
c-10.667 33.333 -16 61.333 -16 84v44c0 102 52 182 156 240c24 8 44 12 60 12zM160.001 276.001c12.667 -93.333 48.668 -140 108.001 -140c58 0 92.667 48 104 144c0 58.667 -26.667 102.667 -80 132c-14.667 2.66699 -25.334 4 -32.001 4c-37.333 0 -68 -30.667 -92 -92
c-5.33301 -25.333 -8 -41.333 -8 -48z" />
    <glyph glyph-name="c" unicode="c" horiz-adv-x="1000" 
d="M216 1244l32 -0.000976562c92.667 0 162 -65.333 208 -196c2.66699 -17.333 4 -34.666 4 -51.999v-720h4c47.333 24 90 36 128 36h28c40.667 0 86 -13.333 136 -40v932c0 20.667 16 34 48 40h24c30.667 0 48 -13.333 52 -40v-1164c-4 -26.667 -21.333 -40 -52 -40h-20
c-37.333 -0 -56 25.333 -56 76c-34 66.667 -82 100 -144 100c-47.333 0 -90 -25.333 -128 -76c-18 -64 -34 -96 -48 -96l-24 -4h-20c-30.667 -0 -48 13.333 -52 40v680h-4c-30 -16 -58 -24 -84 -24h-32c-83.333 0 -150 56 -200 168c-10.667 33.333 -16 61.333 -16 84v44
c0 102 52 182 156 240c24 8 44 12 60 12zM124 963.999c14 -90.667 50.001 -136.001 108.001 -136.001s92.667 48 104 144c0 58.667 -26.667 102.667 -80 132c-14.667 2.66699 -25.334 4 -32.001 4c-61.333 -21.333 -92 -54.666 -92 -99.999c-4 0 -6.66699 -14.667 -8 -44z
" />
    <glyph glyph-name="d" unicode="d" horiz-adv-x="1116" 
d="M40 1244l739.999 0.00195312c81.333 0 148 -54.667 200 -164c10.667 -36.667 16 -70 16 -100v-16c0 -125.333 -58.667 -213.333 -176 -264l-40 -4h-32c-83.333 0 -150 56 -200 168c-10.667 33.333 -16 61.333 -16 84v44c0 38 12 80.667 36 128h-140v-368
c0 -6.66699 -32 -18.667 -96 -36c-136 -68.667 -204 -162 -204 -280c0 -126.667 81.333 -224 244 -292c57.333 -13.333 104 -20 140 -20c74.667 10.667 117.334 16 128.001 16c26.667 -22.667 40 -46.667 40 -72v-16c0 -34.667 -52 -52 -156 -52h-28
c-184 0 -328 74.667 -432 224c-42.667 66.667 -64 133.334 -64 200.001v28c0 154 90.667 279.333 272 376c21.333 5.33301 32 10.666 32 15.999v276h-264c-18.667 11.333 -28 28.666 -28 51.999v20c0 23.333 9.33301 40.666 28 51.999zM655.999 964.002
c14 -90.667 50.001 -136.001 108.001 -136.001s92.667 48 104 144c0 58.667 -26.667 102.667 -80 132c-14.667 2.66699 -25.334 4 -32.001 4c-61.333 -21.333 -92 -54.666 -92 -99.999c-4 0 -6.66699 -14.667 -8 -44z" />
    <glyph glyph-name="e" unicode="e" horiz-adv-x="1088" 
d="M256 1248l27.998 0.000976562c32 -6 48 -19.333 48 -40v-624c0 -18.667 38.667 -49.334 116 -92.001c0.666992 -2.66699 18 -14.667 52 -36h4v540c0 102 52 182 156 240c24 8 44 12 60 12h32c81.333 0 148 -54.667 200 -164c10.667 -36.667 16 -70 16 -100v-16
c0 -125.333 -58.667 -213.333 -176 -264l-40 -4h-32c-27.333 0 -58 9.33301 -92 28v-664c0 -38.667 -22.667 -60 -68 -64c-9.33301 -0 -62.666 33.333 -159.999 100c-258.667 168.667 -392 259.334 -400 272.001v812c0 20.667 16 34 48 40h28c32 -6 48 -19.333 48 -40v-732
c0 -18.667 32 -45.334 96 -80.001c126.667 -86.667 221.334 -149.334 284.001 -188.001v116c-192.667 128.667 -290 195.334 -292 200.001c-2.66699 4.66699 -4 10 -4 16v692c0 20.667 16 34 48 40zM627.998 972.001c12.667 -93.333 48.668 -140 108.001 -140
c58 0 92.667 48 104 144c0 58.667 -26.667 102.667 -80 132c-14.667 2.66699 -25.334 4 -32.001 4c-37.333 0 -68 -30.667 -92 -92c-5.33301 -25.333 -8 -41.333 -8 -48z" />
    <glyph glyph-name="f" unicode="f" horiz-adv-x="1076" 
d="M216 1252h32.001c78 0 142 -49.333 192 -148c16 -32 24 -69.333 24 -112v-488c60.667 53.333 116.667 80 168 80h28c108.667 0 199.334 -85.333 272.001 -256c16 -66.667 24 -126.667 24 -180v-28c0 -72 -9.33301 -108 -28 -108c-22.667 -5.33301 -37.334 -8 -44.001 -8
c-40 6 -60 14 -60 24c5.33301 56.667 8 92.667 8 108c0 130.667 -44 228 -132 292c-24 8 -40 12 -48 12h-8c-70.667 0 -125.334 -64 -164.001 -192c-10.667 -38.667 -16 -84 -16 -136v-88c0 -10.667 -21.333 -18.667 -64 -24c-40 6 -60 14 -60 24v708
c-34 -18.667 -64.667 -28 -92 -28h-32c-83.333 0 -150 56 -200 168c-10.667 33.333 -16 61.333 -16 84v44c0 102 52 182 156 240c24 8 44 12 60 12zM124.001 976c12.667 -93.333 48.668 -140 108.001 -140c58 0 92.667 48 104 144c0 58.667 -26.667 102.667 -80 132
c-14.667 2.66699 -25.334 4 -32.001 4c-37.333 0 -68 -30.667 -92 -92c-5.33301 -25.333 -8 -41.333 -8 -48z" />
    <glyph glyph-name="g" unicode="g" horiz-adv-x="1040" 
d="M844 1240h19.999c22.667 0 40 -8 52 -24v-684l-4 -8c-90.667 26.667 -182.667 40 -276 40c-238 0 -399.333 -54.667 -484 -164c-10.667 -18 -16 -36.667 -16 -56c0 -82.667 97.333 -148 292 -196c75.333 -13.333 146 -20 212 -20c32.667 0 104.667 6.66699 216 20
c42.667 -5.33301 64 -26.666 64 -63.999s-26.667 -60 -80 -68c-64 -10.667 -124 -16 -180 -16h-44c-244 0 -432 68 -564 204c-34.667 47.333 -52 90 -52 128v28c0 109.333 97.333 202.666 292 279.999c112 34.667 218.667 52 320 52h52c42.667 0 85.334 -2.66699 128.001 -8
v520c0 24 17.333 36 52 36zM395.999 1124c96 0 162.667 -52 200 -156c2.66699 -22.667 4 -40 4 -52c0 -96 -52 -162.667 -156 -200c-22.667 -2.66699 -40 -4 -52 -4c-96 0 -162.667 52 -200 156c-2.66699 22.667 -4 40 -4 52c0 96 52 162.667 156 200
c22.667 2.66699 40 4 52 4zM315.999 912c0 -40 28 -64 84 -72c40 0 64 28 72 84c0 40 -28 64 -84 72c-40 0 -64 -28 -72 -84z" />
    <glyph glyph-name="h" unicode="h" horiz-adv-x="1072" 
d="M64 1248c40 -6 60 -14.001 60 -24.001v-520h764c42.667 -5.33301 64 -26.666 64 -63.999v-616c0 -10.667 -21.333 -18.667 -64 -24c-40 6 -60 14 -60 24v556h-768c-33.333 0 -53.333 22.667 -60 68v576c-0 10.667 21.333 18.667 64 24zM428 551.999h32
c81.333 0 148 -54.667 200 -164c10.667 -36.667 16 -70 16 -100v-16c0 -125.333 -58.667 -213.333 -176 -264l-40 -4h-32c-83.333 0 -150 56 -200 168c-10.667 33.333 -16 61.333 -16 84v44c0 102 52 182 156 240c24 8 44 12 60 12zM336 275.999
c12.667 -93.333 48.668 -140 108.001 -140c58 0 92.667 48 104 144c0 58.667 -26.667 102.667 -80 132c-14.667 2.66699 -25.334 4 -32.001 4c-37.333 0 -68 -30.667 -92 -92c-5.33301 -25.333 -8 -41.333 -8 -48z" />
    <glyph glyph-name="i" unicode="i" horiz-adv-x="1072" 
d="M64 1248l32.001 0.000976562c221.333 0 430.666 -144 627.999 -432c92 -142.667 160 -333.334 204 -572.001c16 -76 24 -150.667 24 -224c-19.333 -13.333 -40.666 -20 -63.999 -20c-42.667 0 -64 18.667 -64 56c-22.667 198 -64 367.333 -124 508
c-53.333 126 -125.333 240.667 -216 344c-98.667 98 -189.334 159.333 -272.001 184c-50 16 -79.333 24 -88 24v-1092c0 -10.667 -21.333 -18.667 -64 -24c-40 6 -60 14 -60 24v1148c-0 50.667 21.333 76 64 76zM424.001 552.001h32c81.333 0 148 -54.667 200 -164
c10.667 -36.667 16 -70 16 -100v-16c0 -125.333 -58.667 -213.333 -176 -264l-40 -4h-32c-83.333 0 -150 56 -200 168c-10.667 33.333 -16 61.333 -16 84v44c0 102 52 182 156 240c24 8 44 12 60 12zM332.001 276.001c12.667 -93.333 48.668 -140 108.001 -140
c58 0 92.667 48 104 144c0 58.667 -26.667 102.667 -80 132c-14.667 2.66699 -25.334 4 -32.001 4c-37.333 0 -68 -30.667 -92 -92c-5.33301 -25.333 -8 -41.333 -8 -48z" />
    <glyph glyph-name="j" unicode="j" horiz-adv-x="1060" 
d="M400 1244h12c116 0 232 -97.333 348 -292c120 -234.667 180 -508 180 -820v-100c0 -21.333 -10.667 -32 -32 -32h-884c-16 9.33301 -24 25.333 -24 48v28c0 22.667 8 38.667 24 48h792c0 298.667 -70.667 574.667 -212 828c-46.667 64 -82.667 102.667 -108 116h-4v-324
c0 -10.667 -21.333 -18.667 -64 -24c-40 6 -60 14 -60 24v468c0 21.333 10.667 32 32 32zM216 708h32c81.333 0 148 -54.667 200 -164c10.667 -36.667 16 -70 16 -100v-16c0 -125.333 -58.667 -213.333 -176 -264l-40 -4h-32c-83.333 0 -150 56 -200 168
c-10.667 33.333 -16 61.333 -16 84v44c0 102 52 182 156 240c24 8 44 12 60 12zM124 432c12.667 -93.333 48.668 -140 108.001 -140c58 0 92.667 48 104 144c0 58.667 -26.667 102.667 -80 132c-14.667 2.66699 -25.334 4 -32.001 4c-37.333 0 -68 -30.667 -92 -92
c-5.33301 -25.333 -8 -41.333 -8 -48z" />
    <glyph glyph-name="k" unicode="k" horiz-adv-x="1080" 
d="M736 1248l28 -0.00195312c16 -9.33301 24 -21.333 24 -36v-672c114.667 -48 172 -133.333 172 -256v-16c0 -125.333 -58.667 -213.333 -176 -264l-40 -4h-32c-83.333 0 -150 56 -200 168c-10.667 33.333 -16 61.333 -16 84v44c0 104.667 56 187.334 168 248.001v556
c-144.667 -52 -268.667 -180 -372 -384c-99.333 -229.333 -155.333 -453.333 -168 -672c0 -29.333 -18.667 -44 -56 -44h-8c-40 6 -60 14 -60 24c0 260.667 62.667 523.334 188 788.001c119.333 210 254 344.667 404 404c50.667 21.333 98.667 32 144 32zM620 271.998
c12.667 -93.333 48.668 -140 108.001 -140c58 0 92.667 48 104 144c0 58.667 -26.667 102.667 -80 132c-14.667 2.66699 -25.334 4 -32.001 4c-37.333 0 -68 -30.667 -92 -92c-5.33301 -21.333 -8 -37.333 -8 -48z" />
    <glyph glyph-name="l" unicode="l" horiz-adv-x="896" 
d="M52 1248h20c32 0 61.333 -30.667 88 -92c60 -53.333 133.333 -80 220 -80c122 0 214 52 276 156c17.333 8 30.666 12 39.999 12h20c40 -6 60 -22 60 -48c-28 -79.333 -81.333 -142 -160 -188c-71.333 -40 -148.666 -60 -231.999 -60h-12c-90.667 0 -172 22.667 -244 68
h-4v-976c-4 -26.667 -21.333 -40 -52 -40h-20c-30.667 -0 -48 13.333 -52 40v1168c4 26.667 21.333 40 52 40z" />
    <glyph glyph-name="m" unicode="m" horiz-adv-x="1004" 
d="M424 1252l36 0.000976562c126 0 238 -82.667 336 -248c58.667 -114 88 -235.333 88 -364v-28c0 -204 -65.333 -373.333 -196 -508c-76 -69.333 -152 -104 -228 -104h-36c-138.667 0 -258.667 97.333 -360 292c-42.667 110 -64 216.667 -64 320v28
c-0 203.333 65.333 372.666 196 507.999c78 69.333 154 104 228 104zM140 624.001c0 -203.333 66.666 -355.334 199.999 -456.001c40.667 -18.667 75.334 -28 104.001 -28c122 0 215.333 104 280 312c13.333 72 20 130.667 20 176c0 196.667 -64 347.334 -192 452.001
c-44.667 21.333 -82 32 -112 32c-122 0 -215.333 -104 -280 -312c-13.333 -72 -20 -130.667 -20 -176zM435.999 924h12c94.667 0 160 -76 196 -228c2.66699 -16.667 4 -35.334 4 -56.001v-20c0 -134 -53.333 -227.333 -160 -280l-40 -4h-12c-94.667 0 -160 76 -196 228
c-2.66699 16.667 -4 35.334 -4 56.001v20c0 134 53.333 227.333 160 280zM367.999 632c8.66699 -104 34 -156 76 -156c38 0 62 52 72 156c-8.66699 104 -34 156 -76 156c-34 0 -58 -45.333 -72 -136v-20z" />
    <glyph glyph-name="n" unicode="n" horiz-adv-x="888" 
d="M28 1248l676 0.00195312c42.667 -6 64 -27.333 64 -64v-32c0 -238.667 -113.333 -441.334 -340 -608.001c-120 -72 -213.333 -108 -280 -108v-396c0 -20.667 -16 -34 -48 -40h-28c-32 6 -48 19.333 -48 40v320c0 36.667 -1.33301 84.667 -4 144c0 34.667 17.333 52 52 52
c74.667 0 174.667 37.333 300 112c107.333 66.667 190 188 248 364c13.333 52.667 20 83.334 20 92.001h-612c-18.667 11.333 -28 28.666 -28 51.999v20c-0 23.333 9.33301 40.666 28 51.999z" />
    <glyph glyph-name="o" unicode="o" horiz-adv-x="868" 
d="M500 1240h32c81.333 0 148 -54.667 200 -164c10.667 -36.667 16 -70 16 -100v-16c0 -78 -28 -148.667 -84 -212v-708c-4 -26.667 -21.333 -40 -52 -40h-20c-30.667 -0 -48 13.333 -52 40v652h-40c-60.667 0 -114 32 -160 96h-4l-204 -260c-5.33301 -10 -8 -20.667 -8 -32
v-456c-4 -26.667 -21.333 -40 -52 -40h-20c-30.667 -0 -48 13.333 -52 40v516c0 15.333 80 118 240 308c29.333 36 44 58.667 44 68v56c0 102 52 182 156 240c24 8 44 12 60 12zM408 964c12.667 -93.333 48.668 -140 108.001 -140c58 0 92.667 48 104 144
c0 58.667 -26.667 102.667 -80 132c-14.667 2.66699 -25.334 4 -32.001 4c-37.333 0 -68 -30.667 -92 -92c-5.33301 -25.333 -8 -41.333 -8 -48z" />
    <glyph glyph-name="p" unicode="p" horiz-adv-x="1092" 
d="M60 1244l8 -0.000976562c23.333 -7.33301 126 -68.666 308 -183.999c379.333 -234.667 578 -360 596 -376v-644c-4 -26.667 -21.333 -40 -52 -40h-20c-30.667 -0 -48 13.333 -52 40v560c0 19.333 -41.333 50 -124 92l-720 452l-4 20v4c0 38 20 63.333 60 76zM132 931.999
l8 -0.000976562c10 0 207.333 -121.333 592 -364c40 -17.333 60 -34.666 60 -51.999v-476c-4 -26.667 -21.333 -40 -52 -40h-20c-30.667 0 -48 13.333 -52 40v404c0 18 -30.667 42 -92 72l-500 316l-4 20v4c0 38 20 63.333 60 76zM376 547.998h32
c81.333 0 148 -54.667 200 -164c10.667 -36.667 16 -70 16 -100v-16c0 -125.333 -58.667 -213.333 -176 -264l-40 -4h-32c-83.333 0 -150 56 -200 168c-10.667 33.333 -16 61.333 -16 84v44c0 102 52 182 156 240c24 8 44 12 60 12zM284 271.998
c12.667 -93.333 48.668 -140 108.001 -140c57.333 0 92 48 104 144c0 58.667 -26.667 102.667 -80 132c-14.667 2.66699 -25.334 4 -32.001 4c-37.333 0 -68 -30.667 -92 -92c-5.33301 -21.333 -8 -37.333 -8 -48z" />
    <glyph glyph-name="q" unicode="q" horiz-adv-x="1060" 
d="M544 1252c56 -21.333 84 -45.335 84 -72.002v-4l-144 -212c262.667 -185.333 414.667 -294.666 456 -327.999v-612c0 -9.33301 -14.667 -16 -44 -20h-36c-29.333 4 -44 10.667 -44 20v552c-42 26 -176.667 120.667 -404 284l-316 -448h-4c-61.333 24 -92 49.333 -92 76
c332.667 484.667 510 739.334 532 764.001h12zM440 539.998h28.001c107.333 0 188.666 -61.333 243.999 -184c8 -28.667 12 -52.667 12 -72v-28c0 -102.667 -57.333 -182.667 -172 -240c-31.333 -10.667 -59.333 -16 -84 -16h-20c-106 0 -186 50.667 -240 152
c-16 32 -24 69.333 -24 112v20c0 119.333 70.667 203.333 212 252c18 2.66699 32.667 4 44 4zM292.001 263.998c21.333 -104 76 -156 164 -156c104 21.333 156 76 156 164c-21.333 104 -76 156 -164 156c-104 -21.333 -156 -76 -156 -164z" />
    <glyph glyph-name="r" unicode="r" horiz-adv-x="1116" 
d="M216 1244l31.999 0.000976562c81.333 0 148 -54.667 200 -164c10.667 -36.667 16 -70 16 -100v-16c0 -50.667 -12 -98.667 -36 -144h508c33.333 0 53.333 -21.333 60 -64v-32c0 -238.667 -113.333 -441.334 -340 -608.001c-118.667 -77.333 -240 -116 -364 -116h-32
c-18.667 11.333 -28 28.666 -28 51.999v20c0 37.333 26.667 56 80 56c94 10.667 198 53.334 312 128.001c108.667 79.333 187.334 210 236.001 392c0 5.33301 2.66699 21.333 8 48h-652c-83.333 0 -150 56 -200 168c-10.667 33.333 -16 61.333 -16 84v44
c0 102 52 182 156 240c24 8 44 12 60 12zM123.999 968.001c12.667 -93.333 48.668 -140 108.001 -140c58 0 92.667 48 104 144c0 58.667 -26.667 102.667 -80 132c-14.667 2.66699 -25.334 4 -32.001 4c-37.333 0 -68 -30.667 -92 -92c-5.33301 -25.333 -8 -41.333 -8 -48z
" />
    <glyph glyph-name="s" unicode="s" horiz-adv-x="996" 
d="M444 1252l27.999 -0.00195312c32 -6 48 -19.333 48 -40v-440h328c18.667 -11.333 28 -28.666 28 -51.999v-20c0 -23.333 -9.33301 -40.666 -28 -51.999h-328v-596c0 -28.667 -18.667 -46 -56 -52h-44c-133.333 0 -250.666 92 -351.999 276
c-45.333 113.333 -68 204 -68 272c15.333 24 35.333 36 60 36h24c33.333 0 53.333 -20 60 -60c13.333 -104.667 46.666 -192.667 99.999 -264c54.667 -74.667 105.334 -112 152.001 -112v1064c0 20.667 16 34 48 40z" />
    <glyph glyph-name="t" unicode="t" horiz-adv-x="1072" 
d="M28 1248l868 0.000976562c30 0 48.667 -21.333 56 -64v-12c0 -76 -57.333 -245.333 -172 -508c-69.333 -147.333 -164 -300.666 -284 -459.999c-102 -120 -168.667 -188 -200 -204h-136c-14 0 -23.333 5.33301 -28 16c0 3.33301 46.667 47.333 140 132
c157.333 176 288 372 392 588c48.667 107.333 96.667 235.333 144 384l-8 4h-772c-18.667 11.333 -28 28.666 -28 51.999v20c-0 23.333 9.33301 40.666 28 51.999zM228 1096h32c81.333 0 148 -54.667 200 -164c10.667 -36.667 16 -70 16 -100v-16
c0 -125.333 -58.667 -213.333 -176 -264l-40 -4h-32c-83.333 0 -150 56 -200 168c-10.667 33.333 -16 61.333 -16 84v44c0 102 52 182 156 240c24 8 44 12 60 12zM136 820.001c12.667 -93.333 48.668 -140 108.001 -140c58 0 92.667 48 104 144
c0 58.667 -26.667 102.667 -80 132c-14.667 2.66699 -25.334 4 -32.001 4c-37.333 0 -68 -30.667 -92 -92c-5.33301 -25.333 -8 -41.333 -8 -48z" />
    <glyph glyph-name="u" unicode="u" horiz-adv-x="1068" 
d="M64 1252c40 -6 60 -13.999 60 -23.999v-748h4c31.333 98 96.666 228.667 195.999 392c50 70.667 119.333 148 208 232c123.333 96 227.333 144 312 144h72c21.333 0 32 -10.667 32 -32v-1192c0 -10.667 -21.333 -18.667 -64 -24c-40 6 -60 14 -60 24v1084
c-82 -14 -174 -71.333 -276 -172c-115.333 -142.667 -200.666 -277.334 -255.999 -404.001c-74.667 -180 -132 -353.333 -172 -520l-12 -8h-92c-10.667 4.66699 -16 14 -16 28v1184c-0 24 21.333 36 64 36z" />
    <glyph glyph-name="v" unicode="v" horiz-adv-x="1124" 
d="M488 1244h32c81.333 0 148 -54.667 200 -164c10.667 -36.667 16 -70 16 -100v-16c0 -125.333 -58.667 -213.333 -176 -264l-40 -4h-32c-83.333 0 -150 56 -200 168c-10.667 33.333 -16 61.333 -16 84v44c0 102 52 182 156 240c24 8 44 12 60 12zM80 1216
c32.667 0 54 -31.998 64 -95.998c78.667 -217.333 184 -421.333 316 -612c26 -34 40.667 -51.333 44 -52c118 156.667 215.333 324.667 292 504c29.333 71.333 60 152.666 92 243.999c15.333 8 28.666 12 39.999 12c50.667 -10.667 76 -30.667 76 -60v-16
c-75.333 -270 -214 -535.333 -416 -796c142.667 -146.667 261.334 -249.334 356.001 -308.001c8 -2.66699 12 -10.667 12 -24c0 -4 -4 -8 -12 -12h-160c-20.667 -0 -62 29.333 -124 88l-160 156c-156 -162 -246.667 -243.333 -272 -244h-168c-4 0 -8 4 -12 12
c0 18 40 51.333 120 100c78 60 160.667 138.667 248 236c-201.333 255.333 -340 519.333 -416 792v16c11.333 40 38 60 80 60zM396 964.002c14 -90.667 50.002 -136.001 108.002 -136.001s92.667 48 104 144c0 58.667 -26.667 102.667 -80 132
c-14.667 2.66699 -25.334 4 -32.001 4c-61.333 -21.333 -92 -54.666 -92 -99.999c-4.66699 0 -7.33398 -14.667 -8.00098 -44z" />
    <glyph glyph-name="w" unicode="w" horiz-adv-x="1036" 
d="M844 1248h19.998c22.667 0 40 -8 52 -24v-1200c0 -10.667 -21.333 -18.667 -64 -24c-40 6 -60 14 -60 24v308c-75.333 61.333 -160.666 92 -255.999 92c-158 0 -280.667 -78.667 -368 -236c-18 -37.333 -32.667 -93.333 -44 -168
c-19.333 -13.333 -40.666 -20 -63.999 -20c-40 6 -60 14 -60 24v4c0 197.333 94.667 352 284 464c76 40 156 60 240 60h16c81.333 0 165.333 -20 252 -60v720c0 24 17.333 36 52 36zM291.998 1168h32c81.333 0 148 -54.667 200 -164c10.667 -36.667 16 -70 16 -100v-16
c0 -125.333 -58.667 -213.333 -176 -264l-40 -4h-32c-83.333 0 -150 56 -200 168c-10.667 33.333 -16 61.333 -16 84v44c0 102 52 182 156 240c24 8 44 12 60 12zM199.998 892c12.667 -93.333 48.668 -140 108.001 -140c58 0 92.667 48 104 144
c0 58.667 -26.667 102.667 -80 132c-14.667 2.66699 -25.334 4 -32.001 4c-37.333 0 -68 -30.667 -92 -92c-5.33301 -25.333 -8 -41.333 -8 -48z" />
    <glyph glyph-name="x" unicode="x" horiz-adv-x="1060" 
d="M864 1248h4.00098c28.667 0 52.667 -28 72 -84v-12c-16.667 -16.667 -151.334 -116.667 -404.001 -300v-832c0 -9.33301 -14.667 -16 -44 -20h-36c-29.333 4 -44 10.667 -44 20v440c-7.33301 10 -66 52.667 -176 128l-236 172v464c0 9.33301 14.667 16 44 20h36
c29.333 -4 44 -10.667 44 -20v-396c16 -16 112 -85.333 288 -208v292c7.33301 10 158 122 452 336z" />
    <glyph glyph-name="y" unicode="y" horiz-adv-x="1072" 
d="M56 1248l868 -0.000976562c18.667 -11.333 28 -28.666 28 -51.999v-20c0 -23.333 -9.33301 -40.666 -28 -51.999h-772c-5.33301 -0.666992 -8 -3.33398 -8 -8.00098c62 -194 135.333 -370 220 -528c68.667 -131.333 179.334 -283.333 332.001 -456
c82.667 -73.333 124 -112 124 -116v-4c-10 -8 -19.333 -12 -28 -12h-132c-20.667 0 -95.334 76 -224.001 228c-156 220 -265.333 414.667 -328 584c-72 184 -108 304 -108 360v12c7.33301 42.667 26 64 56 64zM692 1096l31.999 -0.000976562c92.667 0 162 -65.333 208 -196
c5.33301 -20 8 -38.667 8 -56v-44c0 -98.667 -50.667 -178.667 -152 -240c-29.333 -8 -50.666 -12 -63.999 -12h-32c-81.333 0 -148 54.667 -200 164c-10.667 42 -16 76.667 -16 104v16c0 124.667 60 211.334 180 260.001c14.667 2.66699 26.667 4 36 4zM603.999 815.998
c0 -58.667 26.666 -102.667 79.999 -132c14.667 -2.66699 25.334 -4 32.001 -4c37.333 0 68 30.667 92 92c5.33301 25.333 8 41.333 8 48c-12.667 93.333 -48.667 140 -108 140c-58 0 -92.667 -48 -104 -144z" />
    <glyph glyph-name="z" unicode="z" horiz-adv-x="1080" 
d="M24 1244l911.999 -0.000976562c10.667 0 18.667 -17.333 24 -52v-20c-5.33301 -34.667 -13.333 -52 -24 -52h-476c226.667 -190 340 -434 340 -732v-48c0 -159.333 -46.667 -264.666 -140 -315.999c-30 -16 -58 -24 -84 -24h-32c-83.333 0 -150 56 -200 168
c-10.667 33.333 -16 61.333 -16 84v44c0 102 52 182 156 240c24 8 44 12 60 12h32c20.667 0 47.334 -6.66699 80.001 -20v4c-47.333 200 -126 349.333 -236 448c-120.667 93.333 -234 140 -340 140h-56c-16 9.33301 -24 25.333 -24 48v28c0 22.667 8 38.667 24 48z
M451.999 271.999c12.667 -93.333 48.668 -140 108.001 -140c58 0 92.667 48 104 144c0 58.667 -26.667 102.667 -80 132c-14.667 2.66699 -25.334 4 -32.001 4c-37.333 0 -68 -30.667 -92 -92c-5.33301 -25.333 -8 -41.333 -8 -48z" />
    <glyph glyph-name="braceleft" unicode="{" 
 />
    <glyph glyph-name="bar" unicode="|" 
 />
    <glyph glyph-name="braceright" unicode="}" 
 />
    <glyph glyph-name="asciitilde" unicode="~" 
 />
    <glyph glyph-name="exclamdown" unicode="&#xa1;" horiz-adv-x="672" 
 />
    <glyph glyph-name="cent" unicode="&#xa2;" horiz-adv-x="1139" 
 />
    <glyph glyph-name="sterling" unicode="&#xa3;" 
 />
    <glyph glyph-name="currency" unicode="&#xa4;" 
 />
    <glyph glyph-name="yen" unicode="&#xa5;" horiz-adv-x="1262" 
 />
    <glyph glyph-name="brokenbar" unicode="&#xa6;" 
 />
    <glyph glyph-name="section" unicode="&#xa7;" 
 />
    <glyph glyph-name="dieresis" unicode="&#xa8;" horiz-adv-x="1024" 
 />
    <glyph glyph-name="copyright" unicode="&#xa9;" horiz-adv-x="1674" 
 />
    <glyph glyph-name="ordfeminine" unicode="&#xaa;" horiz-adv-x="648" 
 />
    <glyph glyph-name="guillemotleft" unicode="&#xab;" horiz-adv-x="944" 
 />
    <glyph glyph-name="logicalnot" unicode="&#xac;" 
 />
    <glyph glyph-name="registered" unicode="&#xae;" horiz-adv-x="1674" 
 />
    <glyph glyph-name="macron" unicode="&#xaf;" horiz-adv-x="670" 
 />
    <glyph glyph-name="degree" unicode="&#xb0;" horiz-adv-x="674" 
 />
    <glyph glyph-name="plusminus" unicode="&#xb1;" 
 />
    <glyph glyph-name="uni00B2" unicode="&#xb2;" 
 />
    <glyph glyph-name="uni00B3" unicode="&#xb3;" 
 />
    <glyph glyph-name="acute" unicode="&#xb4;" horiz-adv-x="1024" 
 />
    <glyph glyph-name="mu" unicode="&#xb5;" horiz-adv-x="1180" 
 />
    <glyph glyph-name="paragraph" unicode="&#xb6;" horiz-adv-x="1024" 
 />
    <glyph glyph-name="periodcentered" unicode="&#xb7;" horiz-adv-x="508" 
 />
    <glyph glyph-name="periodcentered" unicode="&#x2219;" horiz-adv-x="508" 
 />
    <glyph glyph-name="cedilla" unicode="&#xb8;" horiz-adv-x="1024" 
 />
    <glyph glyph-name="uni00B9" unicode="&#xb9;" 
 />
    <glyph glyph-name="ordmasculine" unicode="&#xba;" horiz-adv-x="718" 
 />
    <glyph glyph-name="guillemotright" unicode="&#xbb;" horiz-adv-x="944" 
 />
    <glyph glyph-name="onequarter" unicode="&#xbc;" horiz-adv-x="1708" 
 />
    <glyph glyph-name="onehalf" unicode="&#xbd;" horiz-adv-x="1964" 
 />
    <glyph glyph-name="threequarters" unicode="&#xbe;" horiz-adv-x="1708" 
 />
    <glyph glyph-name="questiondown" unicode="&#xbf;" horiz-adv-x="748" 
 />
    <glyph glyph-name="Agrave" unicode="&#xc0;" horiz-adv-x="1540" 
 />
    <glyph glyph-name="Aacute" unicode="&#xc1;" horiz-adv-x="1540" 
 />
    <glyph glyph-name="Acircumflex" unicode="&#xc2;" horiz-adv-x="1540" 
 />
    <glyph glyph-name="Atilde" unicode="&#xc3;" horiz-adv-x="1540" 
 />
    <glyph glyph-name="Adieresis" unicode="&#xc4;" horiz-adv-x="1540" 
 />
    <glyph glyph-name="Aring" unicode="&#xc5;" horiz-adv-x="1540" 
 />
    <glyph glyph-name="AE" unicode="&#xc6;" horiz-adv-x="2118" 
 />
    <glyph glyph-name="Ccedilla" unicode="&#xc7;" horiz-adv-x="1399" 
 />
    <glyph glyph-name="Egrave" unicode="&#xc8;" horiz-adv-x="1151" 
 />
    <glyph glyph-name="Eacute" unicode="&#xc9;" horiz-adv-x="1151" 
 />
    <glyph glyph-name="Ecircumflex" unicode="&#xca;" horiz-adv-x="1151" 
 />
    <glyph glyph-name="Edieresis" unicode="&#xcb;" horiz-adv-x="1151" 
 />
    <glyph glyph-name="Igrave" unicode="&#xcc;" horiz-adv-x="657" 
 />
    <glyph glyph-name="Iacute" unicode="&#xcd;" horiz-adv-x="657" 
 />
    <glyph glyph-name="Icircumflex" unicode="&#xce;" horiz-adv-x="657" 
 />
    <glyph glyph-name="Idieresis" unicode="&#xcf;" horiz-adv-x="657" 
 />
    <glyph glyph-name="Eth" unicode="&#xd0;" horiz-adv-x="1518" 
 />
    <glyph glyph-name="Ntilde" unicode="&#xd1;" horiz-adv-x="1554" 
 />
    <glyph glyph-name="Ograve" unicode="&#xd2;" horiz-adv-x="1614" 
 />
    <glyph glyph-name="Oacute" unicode="&#xd3;" horiz-adv-x="1614" 
 />
    <glyph glyph-name="Ocircumflex" unicode="&#xd4;" horiz-adv-x="1614" 
 />
    <glyph glyph-name="Otilde" unicode="&#xd5;" horiz-adv-x="1614" 
 />
    <glyph glyph-name="Odieresis" unicode="&#xd6;" horiz-adv-x="1614" 
 />
    <glyph glyph-name="multiply" unicode="&#xd7;" 
 />
    <glyph glyph-name="Oslash" unicode="&#xd8;" horiz-adv-x="1614" 
 />
    <glyph glyph-name="Ugrave" unicode="&#xd9;" horiz-adv-x="1501" 
 />
    <glyph glyph-name="Uacute" unicode="&#xda;" horiz-adv-x="1501" 
 />
    <glyph glyph-name="Ucircumflex" unicode="&#xdb;" horiz-adv-x="1501" 
 />
    <glyph glyph-name="Udieresis" unicode="&#xdc;" horiz-adv-x="1501" 
 />
    <glyph glyph-name="Yacute" unicode="&#xdd;" horiz-adv-x="1233" 
 />
    <glyph glyph-name="Thorn" unicode="&#xde;" horiz-adv-x="1120" 
 />
    <glyph glyph-name="germandbls" unicode="&#xdf;" horiz-adv-x="1251" 
 />
    <glyph glyph-name="agrave" unicode="&#xe0;" horiz-adv-x="922" 
 />
    <glyph glyph-name="aacute" unicode="&#xe1;" horiz-adv-x="922" 
 />
    <glyph glyph-name="acircumflex" unicode="&#xe2;" horiz-adv-x="922" 
 />
    <glyph glyph-name="atilde" unicode="&#xe3;" horiz-adv-x="922" 
 />
    <glyph glyph-name="adieresis" unicode="&#xe4;" horiz-adv-x="922" 
 />
    <glyph glyph-name="aring" unicode="&#xe5;" horiz-adv-x="922" 
 />
    <glyph glyph-name="ae" unicode="&#xe6;" horiz-adv-x="1454" 
 />
    <glyph glyph-name="ccedilla" unicode="&#xe7;" horiz-adv-x="905" 
 />
    <glyph glyph-name="egrave" unicode="&#xe8;" horiz-adv-x="909" 
 />
    <glyph glyph-name="eacute" unicode="&#xe9;" horiz-adv-x="909" 
 />
    <glyph glyph-name="ecircumflex" unicode="&#xea;" horiz-adv-x="909" 
 />
    <glyph glyph-name="edieresis" unicode="&#xeb;" horiz-adv-x="909" 
 />
    <glyph glyph-name="igrave" unicode="&#xec;" horiz-adv-x="514" 
 />
    <glyph glyph-name="iacute" unicode="&#xed;" horiz-adv-x="514" 
 />
    <glyph glyph-name="icircumflex" unicode="&#xee;" horiz-adv-x="514" 
 />
    <glyph glyph-name="idieresis" unicode="&#xef;" horiz-adv-x="514" 
 />
    <glyph glyph-name="eth" unicode="&#xf0;" horiz-adv-x="1139" 
 />
    <glyph glyph-name="ntilde" unicode="&#xf1;" horiz-adv-x="1108" 
 />
    <glyph glyph-name="ograve" unicode="&#xf2;" horiz-adv-x="1010" 
 />
    <glyph glyph-name="oacute" unicode="&#xf3;" horiz-adv-x="1010" 
 />
    <glyph glyph-name="ocircumflex" unicode="&#xf4;" horiz-adv-x="1010" 
 />
    <glyph glyph-name="otilde" unicode="&#xf5;" horiz-adv-x="1010" 
 />
    <glyph glyph-name="odieresis" unicode="&#xf6;" horiz-adv-x="1010" 
 />
    <glyph glyph-name="divide" unicode="&#xf7;" 
 />
    <glyph glyph-name="oslash" unicode="&#xf8;" horiz-adv-x="1010" 
 />
    <glyph glyph-name="ugrave" unicode="&#xf9;" horiz-adv-x="1059" 
 />
    <glyph glyph-name="uacute" unicode="&#xfa;" horiz-adv-x="1059" 
 />
    <glyph glyph-name="ucircumflex" unicode="&#xfb;" horiz-adv-x="1059" 
 />
    <glyph glyph-name="udieresis" unicode="&#xfc;" horiz-adv-x="1059" 
 />
    <glyph glyph-name="yacute" unicode="&#xfd;" horiz-adv-x="868" 
 />
    <glyph glyph-name="thorn" unicode="&#xfe;" horiz-adv-x="1010" 
 />
    <glyph glyph-name="ydieresis" unicode="&#xff;" horiz-adv-x="868" 
 />
    <glyph glyph-name="dotlessi" unicode="&#x131;" horiz-adv-x="514" 
 />
    <glyph glyph-name="circumflex" unicode="&#x2c6;" horiz-adv-x="1024" 
 />
    <glyph glyph-name="caron" unicode="&#x2c7;" horiz-adv-x="1024" 
 />
    <glyph glyph-name="uni02C9" unicode="&#x2c9;" horiz-adv-x="1024" 
 />
    <glyph glyph-name="breve" unicode="&#x2d8;" horiz-adv-x="1024" 
 />
    <glyph glyph-name="dotaccent" unicode="&#x2d9;" horiz-adv-x="1024" 
 />
    <glyph glyph-name="ring" unicode="&#x2da;" horiz-adv-x="1024" 
 />
    <glyph glyph-name="ogonek" unicode="&#x2db;" horiz-adv-x="1024" 
 />
    <glyph glyph-name="tilde" unicode="&#x2dc;" horiz-adv-x="1024" 
 />
    <glyph glyph-name="hungarumlaut" unicode="&#x2dd;" horiz-adv-x="1024" 
 />
    <glyph glyph-name="endash" unicode="&#x2013;" horiz-adv-x="1108" 
 />
    <glyph glyph-name="emdash" unicode="&#x2014;" horiz-adv-x="2048" 
 />
    <glyph glyph-name="quoteleft" unicode="&#x2018;" horiz-adv-x="557" 
 />
    <glyph glyph-name="quoteright" unicode="&#x2019;" horiz-adv-x="557" 
 />
    <glyph glyph-name="quotesinglbase" unicode="&#x201a;" horiz-adv-x="557" 
 />
    <glyph glyph-name="quotedblleft" unicode="&#x201c;" horiz-adv-x="910" 
 />
    <glyph glyph-name="quotedblright" unicode="&#x201d;" horiz-adv-x="910" 
 />
    <glyph glyph-name="quotedblbase" unicode="&#x201e;" horiz-adv-x="910" 
 />
    <glyph glyph-name="dagger" unicode="&#x2020;" 
 />
    <glyph glyph-name="daggerdbl" unicode="&#x2021;" 
 />
    <glyph glyph-name="bullet" unicode="&#x2022;" horiz-adv-x="1024" 
 />
    <glyph glyph-name="ellipsis" unicode="&#x2026;" horiz-adv-x="2048" 
 />
    <glyph glyph-name="guilsinglleft" unicode="&#x2039;" horiz-adv-x="631" 
 />
    <glyph glyph-name="guilsinglright" unicode="&#x203a;" horiz-adv-x="631" 
 />
    <glyph glyph-name="fraction" unicode="&#x2044;" horiz-adv-x="342" 
 />
    <glyph glyph-name="fraction" unicode="&#x2215;" horiz-adv-x="342" 
 />
    <glyph glyph-name="franc" unicode="&#x20a3;" 
 />
    <glyph glyph-name="lira" unicode="&#x20a4;" 
 />
    <glyph glyph-name="peseta" unicode="&#x20a7;" horiz-adv-x="2028" 
 />
    <glyph glyph-name="Euro" unicode="&#x20ac;" 
 />
    <glyph glyph-name="afii61352" unicode="&#x2116;" horiz-adv-x="2271" 
 />
    <glyph glyph-name="trademark" unicode="&#x2122;" horiz-adv-x="1497" 
 />
    <glyph glyph-name="partialdiff" unicode="&#x2202;" 
 />
    <glyph glyph-name="Delta" unicode="&#x2206;" horiz-adv-x="1081" 
 />
    <glyph glyph-name="product" unicode="&#x220f;" horiz-adv-x="1515" 
 />
    <glyph glyph-name="summation" unicode="&#x2211;" horiz-adv-x="1206" 
 />
    <glyph glyph-name="minus" unicode="&#x2212;" 
 />
    <glyph glyph-name="radical" unicode="&#x221a;" 
 />
    <glyph glyph-name="infinity" unicode="&#x221e;" 
 />
    <glyph glyph-name="integral" unicode="&#x222b;" horiz-adv-x="665" 
 />
    <glyph glyph-name="approxequal" unicode="&#x2248;" 
 />
    <glyph glyph-name="lessequal" unicode="&#x2264;" 
 />
    <glyph glyph-name="greaterequal" unicode="&#x2265;" 
 />
    <glyph glyph-name="uniF001" unicode="&#xf001;" horiz-adv-x="1073" 
 />
    <glyph glyph-name="uniF001" unicode="&#xfb01;" horiz-adv-x="1073" 
 />
    <glyph glyph-name="uniF002" unicode="&#xf002;" horiz-adv-x="1081" 
 />
    <glyph glyph-name="uniF002" unicode="&#xfb02;" horiz-adv-x="1081" 
 />
    <glyph glyph-name=".null" horiz-adv-x="0" 
 />
    <glyph glyph-name="nonmarkingreturn" horiz-adv-x="508" 
 />
  </font>
</defs>
</svg>
