<?xml version="1.0" standalone="no"?>
<!DOCTYPE svg PUBLIC "-//W3C//DTD SVG 1.1//EN" "http://www.w3.org/Graphics/SVG/1.1/DTD/svg11.dtd" >
<svg>
<metadata>
Created by FontForge 20120731 at Thu Nov 21 18:31:38 2013
 By root
(c) 2000 Ray Larabie. This font is freeware. Read attached text file for details. Info &#38; updates visit www.larabiefonts.com. Donations gratefully accepted at www.larabiefonts.com/donation.html. Also visit my commercial type foundry at www.typodermic.com. This font was updated in 2004.
</metadata>
<defs>
<font id="Neuropol" horiz-adv-x="1446" >
  <font-face 
    font-family="Neuropol"
    font-weight="400"
    font-stretch="normal"
    units-per-em="2048"
    panose-1="2 11 5 0 0 0 0 0 0 0"
    ascent="1638"
    descent="-410"
    x-height="919"
    cap-height="1210"
    bbox="-143.538 -442 3078 1693"
    underline-thickness="20"
    underline-position="-113"
    unicode-range="U+0020-2122"
  />
<missing-glyph horiz-adv-x="582" 
 />
    <glyph glyph-name=".notdef" horiz-adv-x="582" 
 />
    <glyph glyph-name=".null" horiz-adv-x="0" 
 />
    <glyph glyph-name="nonmarkingreturn" horiz-adv-x="582" 
 />
    <glyph glyph-name="space" unicode=" " horiz-adv-x="582" 
 />
    <glyph glyph-name="space" unicode="&#xa0;" horiz-adv-x="582" 
 />
    <glyph glyph-name="ampersand" unicode="&#x26;" horiz-adv-x="1706" 
d="M1665 65q0 -72 -91 -72h-47h-18q-11 0 -12 1q-22 2 -135 70q-135 -72 -379 -72h-425q-189 0 -324 61q-193 81 -193 232v83q0 118 101 186q55 37 207 84q-163 133 -175 194q-3 15 -3 39q0 37 2 69t6 59q3 22 28 59q101 152 395 152h235q162 0 275 -57q145 -73 145 -219
q0 -35 -1.5 -60t-3.5 -41q-10 -69 -173 -155q-60 -31 -117.5 -55t-117.5 -43l477 -270l1 252q0 58 48 72q19 6 95 6q78 0 78 -78l1 -247q1 13 1.5 26.5t1.5 29.5q-1 -1 -1 -11v-10v-19v-16q0 -13 -1 -14l-1 14q-8 -76 -29 -116l99 -59q51 -30 51 -75zM1034 876v59
q0 94 -201 94h-237q-204 0 -204 -90v-65q0 -36 40 -60l176 -105l274 77q152 44 152 90zM1151 184l-575 327q-312 -90 -312 -141v-80q0 -61 128 -93q78 -22 179 -22h414q121 0 166 9z" />
    <glyph glyph-name="quotesingle" unicode="'" horiz-adv-x="397" 
d="M334 1127q0 -5 -0.5 -10.5t-1.5 -11.5l-49 -290q-8 -50 -53 -61q-7 -4 -88 -4q-80 0 -80 69q0 5 0.5 10.5t1.5 11.5l47 289q9 50 54 62q7 4 89 4q80 0 80 -69z" />
    <glyph glyph-name="parenleft" unicode="(" horiz-adv-x="563" 
d="M499 1143q0 -45 -55 -82l-104 -70q-55 -51 -55 -131v-516q0 -101 158 -202q55 -34 55 -79q0 -71 -90 -71q-72 0 -94 9q-251 104 -251 343v516q0 248 254 344q16 6 104 6q78 0 78 -67z" />
    <glyph glyph-name="parenright" unicode=")" horiz-adv-x="559" 
d="M497 344q0 -110 -74 -208q-69 -92 -177 -135q-23 -9 -95 -9q-88 0 -88 70q0 44 55 81l102 72q55 52 55 129v516q0 90 -163 205q-50 35 -50 79q0 66 76 66q89 0 106 -6q253 -97 253 -344v-516z" />
    <glyph glyph-name="asterisk" unicode="*" horiz-adv-x="1091" 
d="M1020 1038q0 -49 -72 -65l-116 -26l112 -27q71 -17 71 -66q0 -35 -48 -81q-50 -47 -81 -47q-7 0 -34 8l-212 96q29 -139 29 -132q0 -70 -81 -70q-83 0 -101 3q-66 10 -66 58q0 23 27 142l-209 -98q-27 -8 -35 -8q-32 0 -82 47q-49 48 -49 81q0 50 71 67l108 26l-108 25
q-72 16 -72 66q0 33 48 83q49 49 83 49q4 0 33 -8l212 -97q-28 106 -28 143q0 46 68 57q6 1 31.5 1.5t71.5 0.5q81 0 81 -67q0 -28 -31 -131l217 97q27 8 35 8q32 0 79 -51q48 -51 48 -84z" />
    <glyph glyph-name="plus" unicode="+" horiz-adv-x="791" 
d="M758 600q0 -89 -82 -89h-176v-115q0 -79 -79 -79q-78 0 -100 13q-35 20 -35 85v20v13q0 14 1 15t1 15v13v20h-172q-83 0 -83 89t83 89h169v108q0 77 79 77q109 0 127 -33q9 -17 9 -152h176q82 0 82 -89z" />
    <glyph glyph-name="comma" unicode="," horiz-adv-x="387" 
d="M329 223q0 -5 -0.5 -11t-1.5 -12l-48 -290q-7 -49 -54 -61q-11 -2 -33 -3.5t-55 -1.5q-79 0 -79 69q0 5 0.5 10t1.5 12l46 291q7 47 54 61q10 2 32 3.5t57 1.5q80 0 80 -69z" />
    <glyph glyph-name="hyphen" unicode="-" horiz-adv-x="951" 
d="M882 495q0 -78 -79 -78h-656q-58 0 -71 19q-8 14 -8 72q0 78 79 78h656q56 0 69 -19q10 -13 10 -72z" />
    <glyph glyph-name="hyphen" unicode="&#xad;" horiz-adv-x="951" 
d="M882 495q0 -78 -79 -78h-656q-58 0 -71 19q-8 14 -8 72q0 78 79 78h656q56 0 69 -19q10 -13 10 -72z" />
    <glyph glyph-name="period" unicode="." horiz-adv-x="372" 
d="M324 102q0 -51 -45 -82q-39 -27 -93 -27q-56 0 -94 26q-44 30 -44 83q0 52 44 81q41 26 93 26q53 0 94 -26q45 -30 45 -81z" />
    <glyph glyph-name="slash" unicode="/" horiz-adv-x="1387" 
d="M1366 1145q0 -36 -34 -69l-1098 -1061q-26 -23 -124 -23q-89 0 -89 66q0 34 35 69l1097 1061q22 22 125 22q88 0 88 -65z" />
    <glyph glyph-name="zero" unicode="0" horiz-adv-x="1643" 
d="M1560 319q0 -327 -563 -327h-346q-546 0 -566 296q-3 46 -3 154q0 73 3 219q3 145 3 219q0 330 563 330h346q563 0 563 -329v-562zM1338 326v549q0 154 -337 154h-353q-144 0 -211 -18q-128 -35 -128 -137v-550q0 -149 339 -149h353q158 0 209 16q128 33 128 135z" />
    <glyph glyph-name="one" unicode="1" horiz-adv-x="382" 
d="M302 71q0 -59 -47 -73q-20 -6 -96 -6q-79 0 -79 79v1061q0 78 79 78q76 0 96 -6q47 -14 47 -72v-1061z" />
    <glyph glyph-name="two" unicode="2" horiz-adv-x="1646" 
d="M1602 912q0 -166 -42 -236q-103 -172 -483 -172h-505q-308 0 -308 -115v-214h1255q81 0 81 -91q0 -92 -81 -92h-1397q-78 0 -78 79v316q0 205 285 274q55 13 116.5 19.5t131.5 6.5h492q83 0 186 20q125 30 125 100v104q0 84 -223 109q-81 9 -291 9q-49 0 -67 30
q-11 20 -11 73q0 78 78 78q169 0 269 -3.5t142 -10.5q131 -22 218 -88q107 -81 107 -196z" />
    <glyph glyph-name="three" unicode="3" horiz-adv-x="1708" 
d="M1634 313q0 -181 -179 -262q-141 -59 -338 -59h-965q-78 0 -78 79q0 104 78 104h965q295 0 295 129v115q0 102 -286 102h-974q-78 0 -78 105q0 78 78 78h975q285 0 285 109v115q0 72 -120 93q-23 4 -67 6t-108 2h-201q-81 0 -81 91q0 90 81 90h41h27h15h8q7 0 8 1
q34 1 58.5 1.5t41.5 0.5q207 0 336 -44q183 -68 183 -248q0 -130 -9 -169q-20 -83 -95 -135q75 -56 94 -135q10 -30 10 -169z" />
    <glyph glyph-name="four" unicode="4" horiz-adv-x="1788" 
d="M1718 71q0 -81 -101 -81q-80 0 -99 6q-50 15 -50 75v231h-1286q-112 0 -112 127v702q0 60 50 75q19 6 99 6q101 0 101 -81v-619h1148v619q0 60 50 75q19 6 99 6q101 0 101 -81v-1060z" />
    <glyph glyph-name="five" unicode="5" horiz-adv-x="1664" 
d="M1625 298q0 -306 -548 -306h-960q-78 0 -78 79q0 104 78 104h944q342 0 342 124v178q0 77 -105 113q-86 26 -173 26h-1008q-78 0 -78 78v438q0 78 78 78h727q78 0 78 -78q0 -53 -12 -74q-17 -29 -66 -29h-586v-232h862q193 0 326 -67q179 -86 179 -252v-180z" />
    <glyph glyph-name="six" unicode="6" horiz-adv-x="1705" 
d="M1660 298q0 -166 -176 -246q-132 -60 -321 -60h-589q-320 0 -435 118q-94 94 -94 208v582q0 312 607 312h47h24h12q11 0 12 -1q45 -1 70.5 -2t32.5 -3q55 -13 55 -74q0 -54 -12 -73q-20 -30 -66 -30h-250q-310 0 -310 -127v-102h852q221 0 347 -55q194 -78 194 -257v-190
zM1440 301v183q0 76 -124 110q-86 24 -192 24h-857v-299q0 -77 123 -116q78 -28 188 -28h585q91 0 169 24q108 33 108 102z" />
    <glyph glyph-name="seven" unicode="7" horiz-adv-x="1642" 
d="M1598 1119q0 -45 -42 -94l-846 -1004q-26 -29 -123 -29q-81 0 -81 74q0 30 21 56l768 907h-1172q-78 0 -78 79q0 102 78 102h1336q139 0 139 -91z" />
    <glyph glyph-name="eight" unicode="8" horiz-adv-x="1671" 
d="M1596 808q0 -117 -127 -196q89 -68 112 -132q13 -29 13 -175q0 -169 -185 -252q-126 -61 -333 -61h-475q-182 0 -332 62q-186 82 -186 250q0 132 12 176q23 80 109 132q-87 43 -113 119q-15 45 -15 168q0 311 553 311h419q548 0 548 -310v-92zM1376 811v89
q0 129 -328 129h-419q-331 0 -331 -130v-88q0 -107 310 -107h461q98 0 181 18q126 27 126 89zM1374 307v104q0 59 -133 89q-93 21 -186 21h-437q-116 0 -186 -19q-129 -29 -129 -91v-106q0 -12 19 -34q76 -96 279 -96h475q101 0 182 24q116 35 116 108z" />
    <glyph glyph-name="nine" unicode="9" horiz-adv-x="1671" 
d="M1594 305q0 -213 -275 -281q-151 -32 -444 -32q-49 0 -66 29q-12 21 -12 75q0 79 78 79q13 0 31.5 -0.5t43.5 -1.5q1 -1 12 -1h11h20h32q349 0 349 150v82h-756q-541 0 -541 311v192q0 161 177 242q123 61 319 61h496q197 0 342 -62q183 -84 183 -265v-578zM1374 585v298
q0 80 -123 119q-86 27 -191 27h-484q-107 0 -170 -22q-108 -32 -108 -103v-185q0 -77 124 -111q94 -23 192 -23h760z" />
    <glyph glyph-name="colon" unicode=":" horiz-adv-x="374" 
d="M324 575q0 -109 -137 -109q-56 0 -94 26q-44 30 -44 83q0 52 45 81q38 26 92 26q52 0 93 -26q45 -30 45 -81zM324 108q0 -52 -44 -82q-38 -26 -93 -26t-93 26q-45 28 -45 82q0 52 44 82q41 26 93 26q56 0 94 -26q44 -29 44 -82z" />
    <glyph glyph-name="semicolon" unicode=";" horiz-adv-x="413" 
d="M361 572q0 -54 -43 -82q-38 -26 -93 -26q-53 0 -94 26q-44 29 -44 82t44 82q37 25 93 25t93 -25q44 -29 44 -82zM323 223q0 -5 -0.5 -11t-1.5 -12l-48 -290q-7 -49 -54 -61q-10 -2 -31.5 -3.5t-56.5 -1.5q-79 0 -79 69q0 5 0.5 10t1.5 12l46 291q7 47 54 61q11 2 33 3.5
t56 1.5q80 0 80 -69z" />
    <glyph glyph-name="less" unicode="&#x3c;" horiz-adv-x="1060" 
d="M1014 265q0 -58 -68 -58q-19 0 -63 14l-813 339q-23 11 -23 38q0 23 26 40q7 3 27.5 11.5t54.5 22.5l190 80q130 54 260 108.5t278 114.5q28 12 70 12q38 0 50 -19q8 -14 8 -54q0 -21 -28 -31l-698 -285l698 -285q31 -13 31 -48z" />
    <glyph glyph-name="equal" unicode="=" horiz-adv-x="931" 
d="M873 679q0 -79 -79 -79h-657q-57 0 -70 19q-9 13 -9 73q0 78 79 78h657q56 0 69 -19q10 -13 10 -72zM873 383q0 -79 -79 -79h-657q-57 0 -71 20q-8 14 -8 71q0 79 79 79h657q56 0 69 -19q10 -13 10 -72z" />
    <glyph glyph-name="greater" unicode="&#x3e;" horiz-adv-x="1038" 
d="M1003 598q0 -28 -24 -38l-813 -339q-44 -14 -63 -14q-68 0 -68 58q0 35 31 48l698 285l-698 285q-23 9 -27 24q-1 1 -1 37q0 43 58 43q40 0 70 -12q91 -37 222.5 -92.5t315.5 -130.5l186 -77q11 -5 28 -12t40 -17q45 -20 45 -48z" />
    <glyph glyph-name="question" unicode="?" horiz-adv-x="1127" 
d="M1079 746q0 -149 -184 -225q-147 -56 -313 -56h-235q-54 0 -54 -65q0 -6 0.5 -17t1.5 -22t1.5 -22t0.5 -17q0 -60 -40 -76q-30 -8 -92 -8q-83 0 -83 114q0 8 0.5 19.5t1.5 26.5q1 16 1.5 27.5t0.5 19.5q0 198 352 198q12 0 30 -0.5t42 -1.5q1 -1 11 -1h11h20h29
q92 0 172 21q116 30 116 90v136q0 147 -333 147q-79 0 -79 98q0 56 41 71q13 7 89 7q196 0 323 -64q169 -82 169 -256v-144zM322 108q0 -52 -44 -82q-38 -26 -93 -26t-93 26q-45 28 -45 82q0 52 44 82q38 26 93 26q56 0 94 -26q44 -29 44 -82z" />
    <glyph glyph-name="at" unicode="@" horiz-adv-x="1302" 
d="M1252 494q0 -183 -196 -183h-422q-70 0 -130.5 15.5t-105.5 43.5t-70.5 65t-25.5 81v46q0 47 23 85.5t66 66t103 42.5t135 15h189q-12 74 -147 74q-6 0 -17 -0.5t-23 -0.5t-23 -0.5t-17 -0.5q-58 0 -58 73q0 58 74 58q102 0 172 -12t112.5 -38.5t61.5 -68t19 -99.5v-262
q0 -53 53 -53q63 0 63 53v502q0 21 -21 37.5t-51 28t-62 17t-54 5.5h-465q-222 0 -222 -92v-714q0 -91 263 -91h105q60 0 60 -65q0 -67 -60 -67h-147q-75 0 -144 14t-122.5 42t-85.5 69.5t-32 97.5v715q0 54 26.5 96t76 71t120 44t159.5 15h468q81 0 146.5 -16t111 -45.5
t70 -72t24.5 -95.5v-496zM818 442v198h-193q-19 0 -47.5 -4.5t-55 -14.5t-45.5 -24.5t-19 -33.5v-45q0 -17 14 -30.5t38 -24t55 -16t65 -5.5h188z" />
    <glyph glyph-name="A" unicode="A" horiz-adv-x="1772" 
d="M1746 75q0 -46 -31 -77t-77 -31q-64 0 -104 60l-197 286h-936l-197 -286q-32 -47 -69 -47t-71 24q-38 26 -38 61q0 11 6 20l702 1073q43 66 148 66q78 0 104 -44q2 -3 4.5 -8.5t7.5 -13.5l744 -1053q4 -7 4 -30zM1207 497l-337 497l-339 -497h676z" />
    <glyph glyph-name="B" unicode="B" horiz-adv-x="1670" 
d="M1589 316q0 -175 -166 -259q-128 -65 -322 -65h-942q-78 0 -78 79v1061q0 78 78 78h929q125 0 228 -20q111 -27 188 -99q85 -81 85 -188q0 -104 -8 -150q-2 -9 -13 -30t-30 -53q-37 -64 -37 -71q0 -5 37 -63q19 -29 30 -49t13 -31q4 -16 6 -50.5t2 -89.5zM1372 800
q0 33 -6 102q-10 127 -288 127h-770v-342h779q285 0 285 113zM1366 378q0 126 -275 126h-788v-329h773q269 0 288 115q1 6 1.5 28t0.5 60z" />
    <glyph glyph-name="C" unicode="C" horiz-adv-x="1524" 
d="M1427 1108q0 -79 -78 -79h-791q-288 0 -288 -115v-603q0 -136 319 -136h755q81 0 81 -91q0 -92 -81 -92h-755q-153 0 -220 12q-73 14 -152 54q-90 47 -126 98q-43 58 -43 151v606q0 115 105 196q88 67 214 90q32 5 78 8t109 3h795q78 0 78 -102z" />
    <glyph glyph-name="D" unicode="D" horiz-adv-x="1670" 
d="M1594 321q0 -172 -173 -261q-134 -68 -327 -68h-940q-78 0 -78 79v1061q0 78 78 78h945q495 0 495 -310v-579zM1374 322v577q0 71 -108 106q-77 24 -173 24h-795v-854h791q103 0 178 27q107 38 107 120z" />
    <glyph glyph-name="E" unicode="E" horiz-adv-x="1459" 
d="M1417 601q0 -97 -83 -97h-1069v-200q0 -129 285 -129h784q78 0 78 -79q0 -104 -78 -104h-794q-174 0 -319 62q-178 81 -178 242v604q0 87 59 158q128 152 457 152h217q77 0 77 -102q0 -79 -77 -79h-32h-20h-11q-11 0 -12 1q-25 1 -43 1.5t-30 0.5q-365 0 -365 -132v-213
h1072q82 0 82 -86z" />
    <glyph glyph-name="F" unicode="F" horiz-adv-x="1453" 
d="M1411 596q0 -92 -83 -92h-1063v-433q0 -79 -78 -79q-83 0 -96 7q-48 15 -48 72v855q0 146 188 224q144 60 316 60h166q79 0 79 -102q0 -79 -79 -79q-448 0 -448 -111v-231h1063q83 0 83 -91z" />
    <glyph glyph-name="G" unicode="G" horiz-adv-x="1585" 
d="M1543 302q0 -166 -165 -247q-128 -63 -312 -63h-504q-198 0 -333 57q-186 78 -186 249v610q0 164 190 243q150 59 331 59h200q81 0 81 -90q0 -91 -81 -91h-30h-20h-11q-9 0 -10 1q-23 1 -41 1.5t-29 0.5q-358 0 -358 -124v-609q0 -124 300 -124h501q72 0 153 27
q102 34 102 92v315q0 55 48 73q28 5 96 5q78 0 78 -78v-307z" />
    <glyph glyph-name="H" unicode="H" horiz-adv-x="1675" 
d="M1596 71q0 -79 -79 -79q-76 0 -95 6q-46 13 -46 73v433h-1076v-433q0 -79 -78 -79q-34 0 -58 1.5t-38 3.5q-48 15 -48 74v1061q0 59 47 73q11 2 35 3.5t62 1.5q78 0 78 -78v-445h1076v445q0 57 47 72q19 6 94 6q79 0 79 -78v-1061z" />
    <glyph glyph-name="I" unicode="I" horiz-adv-x="379" 
d="M300 71q0 -79 -78 -79q-34 0 -58 1.5t-38 3.5q-48 15 -48 74v1061q0 59 47 73q11 2 35 3.5t62 1.5q78 0 78 -78v-1061z" />
    <glyph glyph-name="J" unicode="J" horiz-adv-x="774" 
d="M726 341q0 -219 -207 -298q-132 -51 -392 -51q-79 0 -79 104q0 79 79 79q168 0 233 15q143 35 143 148v794q0 78 78 78q76 0 96 -6q49 -13 49 -72v-791z" />
    <glyph glyph-name="K" unicode="K" horiz-adv-x="1442" 
d="M1400 65q0 -73 -90 -73q-99 0 -115 10l-935 493v-424q0 -79 -79 -79q-80 0 -93 7q-45 15 -45 72v1061q0 58 45 72q18 6 93 6q79 0 79 -78v-409l900 479q26 8 121 8q89 0 89 -72q0 -46 -53 -75l-862 -451l892 -471q53 -29 53 -76z" />
    <glyph glyph-name="L" unicode="L" horiz-adv-x="1495" 
d="M1425 71q0 -79 -78 -79h-712q-244 0 -381 44q-211 73 -211 277v819q0 78 78 78q75 0 96 -6q48 -14 48 -72v-819q0 -95 154 -125q49 -13 228 -13h700q78 0 78 -104z" />
    <glyph glyph-name="M" unicode="M" horiz-adv-x="2206" 
d="M2127 71q0 -58 -48 -73q-20 -6 -96 -6q-78 0 -78 79v788l-655 -808q-52 -64 -141 -64q-90 0 -142 64l-667 812v-792q0 -79 -78 -79q-77 0 -96 6q-48 15 -48 73v1022q0 113 124 113q81 0 130 -58l780 -923l762 924q48 58 126 58q127 0 127 -123v-1013z" />
    <glyph glyph-name="N" unicode="N" horiz-adv-x="1671" 
d="M1590 123q0 -139 -122 -139q-56 0 -127 59l-1037 881v-853q0 -59 -48 -74q-14 -2 -38 -3.5t-58 -1.5q-78 0 -78 79v1016q0 132 114 132q72 0 148 -64l1023 -871v848q0 58 48 73q14 2 38 3.5t58 1.5q79 0 79 -78v-1009z" />
    <glyph glyph-name="O" unicode="O" horiz-adv-x="1626" 
d="M1550 319q0 -327 -565 -327h-346q-229 0 -361 58q-202 82 -202 268v562q0 330 563 330h346q263 0 371 -46q194 -75 194 -284v-561zM1327 324v551q0 154 -337 154h-352q-340 0 -340 -154v-551q0 -149 340 -149h353q336 0 336 149z" />
    <glyph glyph-name="P" unicode="P" horiz-adv-x="1600" 
d="M1558 750q0 -183 -182 -264q-141 -59 -340 -59h-771v-356q0 -57 -48 -72q-13 -7 -96 -7q-78 0 -78 79v1061q0 78 78 78h925q188 0 319 -52q193 -72 193 -219v-189zM1338 757v166q0 106 -290 106h-783v-420h784q289 0 289 148z" />
    <glyph glyph-name="Q" unicode="Q" horiz-adv-x="1645" 
d="M1577 317q0 -196 -200 -270q35 -19 54 -30t24 -14q50 -35 50 -67q0 -44 -38 -71q-35 -24 -80 -24q-31 0 -63 17l-249 137h-427q-579 0 -579 322v574q0 208 202 278q129 41 376 41h356q254 0 376 -38q198 -68 198 -280v-575zM1354 311v583q0 135 -359 135h-347
q-157 0 -215 -12q-142 -28 -142 -123v-581q0 -93 133 -121q48 -13 205 -13h384q341 0 341 132z" />
    <glyph glyph-name="R" unicode="R" horiz-adv-x="1632" 
d="M1568 755q0 -165 -174 -241q-138 -56 -318 -56h-366l742 -315q59 -26 59 -77q0 -75 -131 -75q-52 0 -82 8l-1013 433v-361q0 -79 -78 -79q-83 0 -96 7q-48 15 -48 72v1061q0 78 78 78h894q208 0 342 -54q191 -77 191 -254v-147zM1346 753v154q0 122 -312 122h-749v-390
h789q272 0 272 114z" />
    <glyph glyph-name="S" unicode="S" horiz-adv-x="1462" 
d="M1422 294q0 -98 -31 -153q-83 -149 -502 -149h-769q-77 0 -77 79q0 54 12 75q17 29 65 29h769q311 0 311 115v105q0 112 -301 122l-369 12q-26 1 -73.5 3.5t-116.5 7.5q-120 14 -206 79q-94 72 -94 189v92q0 213 236 281q113 29 414 29q78 0 78 -102q0 -59 -47 -74
q-7 -4 -95 -4q-364 0 -364 -128v-85q0 -79 136 -103q26 -5 75.5 -7.5t121.5 -2.5h297q213 0 336 -55q194 -80 194 -246v-109z" />
    <glyph glyph-name="T" unicode="T" horiz-adv-x="1390" 
d="M1375 1108q0 -79 -78 -79h-493v-958q0 -79 -77 -79q-78 0 -97 6q-47 14 -47 73v958h-489q-79 0 -79 79q0 54 12 74q16 28 67 28h1203q78 0 78 -102z" />
    <glyph glyph-name="U" unicode="U" horiz-adv-x="1663" 
d="M1583 335q0 -347 -665 -347q-20 0 -50.5 0.5t-70.5 1.5t-70 1.5t-50 0.5q-468 0 -563 176q-33 61 -33 167v797q0 78 78 78q75 0 96 -6q49 -15 49 -72v-782q0 -116 141 -155q42 -10 99.5 -15t135.5 -5h306q175 0 235 19q141 37 141 155v783q0 58 47 72q19 6 96 6
q78 0 78 -78v-797z" />
    <glyph glyph-name="V" unicode="V" horiz-adv-x="1777" 
d="M1766 1148q0 -25 -23 -60l-720 -1024q-53 -74 -133 -74q-82 0 -133 73l-722 1025q-23 35 -23 60q0 65 109 65q83 0 109 -36l660 -942l657 942q25 36 109 36q110 0 110 -65z" />
    <glyph glyph-name="W" unicode="W" horiz-adv-x="2340" 
d="M2318 1137q0 -19 -9 -38l-481 -1017q-44 -90 -138 -90q-92 0 -131 84l-384 821l-397 -823q-36 -73 -130 -73q-101 0 -137 78l-479 1020q-9 19 -9 34q0 40 41 63q35 20 78 20q72 0 96 -50l410 -871l390 837q42 90 134 90q32 0 73 -26q40 -25 55 -56l396 -845l404 870
q23 50 104 50q41 0 74 -18q40 -22 40 -60z" />
    <glyph glyph-name="X" unicode="X" horiz-adv-x="1576" 
d="M1556 63q0 -38 -48 -59q-48 -17 -82 -17q-54 0 -82 24l-554 468l-560 -468q-26 -20 -92 -20q-118 0 -118 70q0 36 40 70l571 481l-552 461q-39 33 -39 70q0 54 58 64q15 3 99 3q30 0 50 -17l543 -453l538 452q22 18 116 18q90 0 90 -67q0 -37 -39 -70l-549 -461l568 -481
q42 -36 42 -68z" />
    <glyph glyph-name="Y" unicode="Y" horiz-adv-x="1522" 
d="M1508 1145q0 -35 -36 -69l-599 -575l-2 -430q-2 -59 -47 -72q-13 -7 -95 -7q-79 0 -79 78v431l-601 575q-34 33 -34 68q0 66 89 66q101 0 123 -22l533 -511l535 511q22 22 123 22q90 0 90 -65z" />
    <glyph glyph-name="Z" unicode="Z" 
d="M1412 84q0 -92 -81 -92h-1113q-72 0 -121 27q-62 33 -62 98q0 42 35 72l1131 961q49 43 105 43q21 0 39.5 -6.5t33 -18.5t23 -28.5t8.5 -36.5q0 -47 -45 -84l-998 -844h964q81 0 81 -91z" />
    <glyph glyph-name="bracketleft" unicode="[" horiz-adv-x="570" 
d="M511 1108q0 -79 -78 -79h-151v-854h146q79 0 79 -79q0 -104 -79 -104h-290q-78 0 -78 79v1061q0 78 78 78h295q78 0 78 -102z" />
    <glyph glyph-name="backslash" unicode="\" horiz-adv-x="1387" 
d="M1366 58q0 -66 -88 -66q-99 0 -125 23l-1097 1061q-35 35 -35 69q0 65 89 65q102 0 124 -22l1098 -1061q34 -33 34 -69z" />
    <glyph glyph-name="bracketright" unicode="]" horiz-adv-x="561" 
d="M506 71q0 -79 -78 -79h-295q-79 0 -79 79q0 104 79 104h151v854h-146q-79 0 -79 79q0 55 13 74q16 28 66 28h290q78 0 78 -78v-1061z" />
    <glyph glyph-name="asciicircum" unicode="^" horiz-adv-x="781" 
d="M739 1133q0 -58 -69 -58q-35 0 -69 31q-10 10 -24 23.5t-33 32.5q-15 14 -53 50t-101 94q-70 -72 -126 -124t-98 -87q-23 -18 -51 -18q-73 0 -73 58q0 17 16 33l266 267q29 29 66 29t66 -29l267 -267q16 -16 16 -35z" />
    <glyph glyph-name="underscore" unicode="_" horiz-adv-x="1503" 
d="M1494 -244q0 -78 -78 -78h-1329q-58 0 -71 42q-7 13 -7 90q0 79 78 79h1329q56 0 71 -43q7 -13 7 -90z" />
    <glyph glyph-name="grave" unicode="`" horiz-adv-x="764" 
d="M584 1034q0 -56 -67 -56q-22 0 -45 14q-21 15 -148 142q-63 63 -97 98.5t-39 45.5q-9 13 -9 24q0 25 23.5 42t50.5 17q21 0 34 -13l279 -276q18 -18 18 -38z" />
    <glyph glyph-name="a" unicode="a" horiz-adv-x="1539" 
d="M1469 280q0 -288 -432 -288h-516q-166 0 -287 61q-163 78 -163 217v122q0 150 155 225q115 58 288 58h746q-17 101 -286 101q-11 0 -26.5 -0.5t-35.5 -1.5q-1 -1 -10 -1h-9h-16h-25q-78 0 -78 99q0 79 78 79q253 0 387 -35q230 -65 230 -260v-376zM1262 330q0 14 -0.5 35
t-1.5 49t-1.5 49t-0.5 35h-749q-66 0 -136 -24q-91 -31 -91 -81v-121q0 -53 94 -81q60 -22 139 -22h524q118 0 162 23q61 31 61 138z" />
    <glyph glyph-name="b" unicode="b" horiz-adv-x="1455" 
d="M1397 294q0 -302 -499 -302h-324q-177 0 -325 63q-191 81 -191 234v841q0 58 42 72q13 7 91 7t78 -79v-187h629q499 0 499 -297v-352zM1187 301v341q0 124 -285 124h-633v-476q0 -65 136 -98q49 -11 97 -17t97 -6h301q69 0 113.5 3t67.5 8q106 25 106 121z" />
    <glyph glyph-name="c" unicode="c" horiz-adv-x="1450" 
d="M1412 71q0 -79 -98 -79h-781q-225 0 -324 43q-170 68 -170 247v378q0 291 450 291h836q82 0 82 -89t-82 -89h-821q-254 0 -254 -107v-375q0 -122 289 -122h794q79 0 79 -98z" />
    <glyph glyph-name="d" unicode="d" horiz-adv-x="1504" 
d="M1425 287q0 -154 -191 -234q-135 -61 -325 -61h-322q-489 0 -505 271q-3 48 -3 126q0 157 6 256q18 298 499 298h630v187q0 79 78 79q56 0 90 -8q43 -15 43 -71v-843zM1214 291v475h-635q-283 0 -283 -125v-340q0 -93 107 -120q46 -12 181 -12h304q326 0 326 122z" />
    <glyph glyph-name="e" unicode="e" horiz-adv-x="1410" 
d="M1368 455q0 -87 -59 -87h-1049v-7q0 -136 160 -175q35 -8 101.5 -12.5t169.5 -4.5q78 0 78 -98q0 -79 -78 -79q-106 0 -173.5 1.5t-102.5 5.5q-174 18 -256 82q-117 91 -117 214v353q0 166 180 246q123 58 326 58h394q166 0 275 -55q151 -70 151 -211v-231zM1162 551v118
q0 108 -429 108q-253 0 -347 -18q-133 -25 -133 -98v-110h909z" />
    <glyph glyph-name="f" unicode="f" horiz-adv-x="710" 
d="M675 865q0 -98 -78 -98h-322v-696q0 -79 -78 -79t-91 7q-42 15 -42 72v857q0 283 473 283q81 0 101 -9q37 -18 37 -89q0 -78 -78 -78q-142 0 -185 -6q-134 -20 -134 -86h319q78 0 78 -78z" />
    <glyph glyph-name="g" unicode="g" horiz-adv-x="1463" 
d="M1394 24q0 -165 -206 -242q-137 -55 -347 -55h-88q-79 0 -79 99q0 78 79 78h153q40 0 150 29q114 33 121 67h-579q-205 0 -337 51q-192 73 -192 245v356q0 302 596 302q16 0 39 -0.5t55 -1.5q1 -1 15 -1h15h25h39q189 0 342 -56q199 -78 199 -245v-626zM1181 176v465
q0 71 -117 107q-95 26 -177 26h-333q-118 0 -169 -12q-105 -26 -105 -106v-357q0 -123 314 -123h587z" />
    <glyph glyph-name="h" unicode="h" horiz-adv-x="1472" 
d="M1420 71q0 -57 -42 -72q-13 -7 -91 -7t-78 79v565q0 89 -106 117q-70 14 -177 14h-620v-696q0 -79 -78 -79t-91 7q-42 15 -42 72v1061q0 58 42 72q16 6 91 6q78 0 78 -78v-189h570q253 0 355 -40q189 -68 189 -264v-568z" />
    <glyph glyph-name="i" unicode="i" horiz-adv-x="398" 
d="M336 1082q0 -52 -44 -82q-38 -26 -93 -26t-93 26q-44 30 -44 82t44 82q38 26 93 26t93 -26q44 -30 44 -82zM307 71q0 -79 -79 -79q-77 0 -90 7q-41 15 -41 72v805q0 78 79 78q76 0 89 -7q42 -15 42 -71v-805z" />
    <glyph glyph-name="j" unicode="j" horiz-adv-x="692" 
d="M676 1086q0 -53 -44 -82q-38 -26 -94 -26q-53 0 -94 26q-44 29 -44 82t44 82q41 26 94 26q56 0 94 -26q44 -29 44 -82zM645 82q0 -202 -191 -264q-84 -27 -360 -27q-78 0 -78 99q0 79 78 79q340 0 340 96v812q0 78 79 78q77 0 90 -7q42 -15 42 -71v-795z" />
    <glyph glyph-name="k" unicode="k" horiz-adv-x="1234" 
d="M1192 66q0 -74 -89 -74q-84 0 -102 9l-721 361v-291q0 -56 -42 -72q-13 -7 -89 -7q-78 0 -78 79v1061q0 78 78 78q73 0 90 -6q41 -14 41 -72v-553h1l711 356q27 8 96 8q89 0 89 -73q0 -48 -54 -75l-646 -322l661 -331q54 -27 54 -76z" />
    <glyph glyph-name="l" unicode="l" horiz-adv-x="370" 
d="M291 71q0 -79 -78 -79q-77 0 -90 7q-43 16 -43 72v1061q0 78 78 78q73 0 91 -6q42 -14 42 -72v-1061z" />
    <glyph glyph-name="m" unicode="m" horiz-adv-x="1956" 
d="M1885 71q0 -79 -78 -79t-91 7q-43 15 -43 72v591q0 114 -269 114h-28h-13q-11 0 -12 -1q-129 -5 -171 -18q-94 -28 -94 -122v-564q0 -57 -43 -72q-13 -7 -91 -7q-79 0 -79 79v566q0 85 -61 115q-42 21 -137 21h-26h-17h-9q-8 0 -9 1q-20 1 -35 1.5t-25 0.5
q-272 0 -272 -116v-589q0 -57 -42 -72q-13 -7 -91 -7t-78 79v567q0 313 460 313q91 0 148.5 -1.5t85.5 -5.5q119 -15 220 -75q90 56 222 73q70 9 235 9q443 0 443 -313v-567z" />
    <glyph glyph-name="n" unicode="n" horiz-adv-x="1455" 
d="M1381 71q0 -79 -79 -79q-78 0 -91 7q-43 15 -43 72v610q0 65 -108 85q-19 4 -58.5 5.5t-99.5 1.5h-364q-55 0 -92.5 -2t-59.5 -6q-102 -20 -102 -85v-609q0 -79 -78 -79t-91 7q-42 15 -42 72v607q0 273 484 273h345q479 0 479 -271v-609z" />
    <glyph glyph-name="o" unicode="o" 
d="M1377 290q0 -164 -162 -240q-115 -58 -306 -58h-351q-174 0 -315 59q-174 78 -174 239v353q0 161 173 244q127 64 315 64h352q468 0 468 -306v-355zM1163 290v369q0 114 -260 114h-343q-96 0 -172 -24q-108 -35 -108 -106v-353q0 -68 110 -100q73 -21 171 -21h343
q83 0 157 24q102 33 102 97z" />
    <glyph glyph-name="p" unicode="p" horiz-adv-x="1460" 
d="M1392 297q0 -297 -456 -297h-658v-195q0 -56 -43 -71q-13 -7 -90 -7q-78 0 -78 78v861q0 175 166 242q96 43 316 43h336q507 0 507 -282v-372zM1179 294v372q0 76 -117 99q-47 9 -175 9h-329q-280 0 -280 -113v-485h658q243 0 243 118z" />
    <glyph glyph-name="q" unicode="q" horiz-adv-x="1467" 
d="M1396 -195q0 -56 -44 -71q-13 -7 -91 -7t-78 78v195h-655q-457 0 -457 297v371q0 283 506 283h339q480 0 480 -284v-862zM1183 176v486q0 112 -278 112h-329q-294 0 -294 -108v-372q0 -118 242 -118h659z" />
    <glyph glyph-name="r" unicode="r" horiz-adv-x="711" 
d="M667 851q0 -79 -94 -79q-13 0 -37.5 1.5t-37.5 1.5q-243 0 -243 -121v-583q0 -58 -44 -73q-18 -6 -92 -6q-75 0 -75 80v582q0 188 193 255q118 42 351 42q79 0 79 -100z" />
    <glyph glyph-name="s" unicode="s" horiz-adv-x="1300" 
d="M1258 266q0 -274 -418 -274h-714q-78 0 -78 79q0 98 78 98h715q198 0 198 97v36q0 87 -180 87h-343q-473 0 -473 264v52q0 175 238 224q48 11 140.5 16.5t232.5 5.5q79 0 79 -100q0 -78 -79 -78h-152q-119 0 -143 -3q-105 -14 -105 -65v-50q0 -86 263 -86h350
q391 0 391 -259v-44z" />
    <glyph glyph-name="t" unicode="t" horiz-adv-x="825" 
d="M803 845q0 -78 -79 -78h-334v-696q0 -79 -78 -79q-77 0 -90 7q-43 16 -43 72v696q-42 0 -68.5 1.5t-37.5 3.5q-50 17 -50 83t50 83q11 2 37.5 3.5t68.5 1.5v189q0 78 78 78q77 0 90 -7q43 -15 43 -71v-189h334q79 0 79 -98z" />
    <glyph glyph-name="u" unicode="u" horiz-adv-x="1494" 
d="M1417 278q0 -289 -612 -289q-17 0 -44 0.5t-63 1.5q-1 1 -8 1h-9h-16h-29h-45q-514 0 -514 286v594q0 79 78 79t91 -7q42 -15 42 -72v-594q0 -109 303 -109h315q297 0 297 106v597q0 57 43 72q13 7 92 7t79 -79v-594z" />
    <glyph glyph-name="v" unicode="v" horiz-adv-x="1615" 
d="M1589 886q0 -28 -29 -63l-672 -812q-35 -41 -80 -41t-78 39l-676 814q-29 35 -29 63q0 69 115 69q69 0 96 -33l573 -698l570 698q27 33 96 33q114 0 114 -69z" />
    <glyph glyph-name="w" unicode="w" horiz-adv-x="2014" 
d="M1979 887q0 -22 -15 -50l-391 -759q-34 -67 -128 -67q-90 0 -125 65l-311 583l-316 -585q-36 -66 -129 -66q-97 0 -131 69l-383 760q-14 39 -14 50q0 68 99 68q86 0 112 -47l324 -626l316 583q37 70 122 70q82 0 120 -69l316 -584l323 626q24 47 111 47q100 0 100 -68z
" />
    <glyph glyph-name="x" unicode="x" horiz-adv-x="1406" 
d="M1378 62q0 -54 -55 -66q-8 -4 -98 -4q-24 0 -46 16l-472 344l-476 -344q-22 -16 -112 -16t-90 70q0 41 45 73l470 336l-465 337q-43 31 -43 73q0 55 57 67q13 3 100 3q25 0 46 -15l469 -344l459 343q19 16 110 16q90 0 90 -69q0 -42 -43 -73l-454 -335l464 -339
q44 -32 44 -73z" />
    <glyph glyph-name="y" unicode="y" horiz-adv-x="1478" 
d="M1398 7q0 -195 -236 -255q-87 -25 -387 -25q-49 0 -66 29q-13 19 -13 74q0 79 79 79h27h17h10q10 0 11 -1q22 -1 37.5 -1.5t26.5 -0.5q282 0 282 94h-630q-476 0 -476 286v586q0 57 42 72q13 7 91 7t78 -79v-586q0 -110 265 -110h630v696q0 79 79 79q78 0 91 -7
q42 -15 42 -72v-865z" />
    <glyph glyph-name="z" unicode="z" horiz-adv-x="1415" 
d="M1376 81q0 -89 -82 -89h-1109q-53 0 -97 29q-48 34 -48 85t56 87l1083 700q41 26 78 26q42 0 68.5 -27.5t26.5 -69.5q0 -38 -28 -56l-911 -594l881 -3q82 0 82 -88z" />
    <glyph glyph-name="braceleft" unicode="{" horiz-adv-x="630" 
d="M584 1287q0 -82 -89 -82h-106l-2 -494q0 -64 -49 -109q49 -43 49 -109l2 -501h106q72 0 72 -81q0 -77 -72 -77q-152 0 -207 16q-131 32 -131 128v517q0 7 -56 36q-55 30 -55 68q0 37 55 71q56 35 56 40v514q0 99 130 130q54 16 208 16q89 0 89 -83z" />
    <glyph glyph-name="bar" unicode="|" horiz-adv-x="381" 
d="M302 -195q0 -79 -78 -79q-34 0 -58 1.5t-38 3.5q-48 15 -48 74v1432q0 58 48 72q19 6 96 6q78 0 78 -78v-1432z" />
    <glyph glyph-name="braceright" unicode="}" horiz-adv-x="643" 
d="M590 600q0 -37 -56 -69q-55 -30 -55 -36v-517q0 -98 -130 -129q-63 -15 -208 -15q-73 0 -73 77q0 81 73 81h106l1 501q0 65 50 109q-50 45 -50 109l-1 494h-106q-89 0 -89 82q0 83 89 83q154 0 208 -16q130 -31 130 -130v-514q0 -5 55 -39q56 -35 56 -71z" />
    <glyph glyph-name="asciitilde" unicode="~" horiz-adv-x="2896" 
d="M127 600h2v96h137v58h-37v180h37v63h-37v76h899v-94q-15 27 -49 27q-94 0 -94 -158q0 -156 98 -156q29 0 64 39v-35h49v377h766v-53h70v53h737v-1073h-2642v600zM1921 696v193q0 110 -96 110q-48 0 -64 -49q-18 49 -57 49q-34 0 -55 -49v47h-66v-243h-39v-58h144v58h-39
v125q0 47 39 47q30 0 30 -47v-183h105v58h-39v125q0 45 39 45q30 0 30 -45v-183h68zM2019 547h-114v-387h65v250h6l19 -250h119v387h-66v-250h-6zM983 547v-387h162l22 43v127l-16 28v7l16 28v113l-22 41h-162zM1692 506v-303l20 -43h137l25 43v303l-23 41h-139zM555 547
v-387h78v170h22v-170h84v155l-30 43v7l30 41v100l-22 41h-162zM524 600h68v115q15 -25 49 -25q94 0 94 156q0 155 -98 155q-29 0 -64 -40v36h-49v-397zM973 844q0 160 -113 160q-110 0 -110 -160q0 -156 110 -156q113 0 113 156zM2425 428h78v78l-21 41h-135l-23 -41v-135
l25 -41l76 -19v-78h-21v58h-80v-88l23 -43h133l23 43v147l-27 43l-72 17v67h21v-49zM524 160v141l-53 246h-84l-47 -246v-141h76v73h26v-73h82zM950 160v141l-49 246h-84l-47 -246v-141h78v73h24v-73h78zM346 600h43q113 12 113 145v252h-68v-186q0 -53 -41 -53
q-39 0 -39 53v186h-65v-174q0 -131 94 -131q29 0 51 17q0 -47 -57 -47h-31v-62zM1389 326h53v67h-53v72h53v82h-131v-387h131v86h-53v80zM1610 319h49v68h-49v78h49v82h-129v-387h80v159zM2179 465v-305h80v305h43v82h-166v-82h43zM1403 997h-31v-47q-22 54 -67 54
q-88 0 -88 -89q0 -56 45 -73q-48 -20 -48 -68q5 -86 93 -86q45 0 70.5 26.5t25.5 82.5h-31q-6 -39 -51 -39q-41 0 -41 28q0 37 41 37h20v37h-20q-41 0 -41 35q0 33 41 33q35 0 51 -41h31v110zM2245 993h-33v-43q-26 54 -62 54q-102 0 -102 -160q0 -154 104 -154q74 0 93 119
h-33q-6 -47 -51 -47q-47 0 -47 82q0 84 47 84q23 0 36 -14t15 -42h33v121zM309 246h-45v301h-78v-387h123v86zM1280 160v387h-80v-387h80zM1516 754h-29v133q0 41 29 41q12 0 24 -13l23 68q-8 6 -16 10t-19 6q-42 0 -64 -49v47h-39v-301h91v58zM1931 997v-63h31v-238h70v301
h-101zM586 895q12 31 43 31q43 0 43 -78q0 -88 -45 -88q-30 0 -41 33v102zM905 844q0 -82 -45 -82q-43 0 -43 82q0 84 43 84q45 0 45 -84zM1133 797q-14 -29 -41 -29q-43 0 -43 78q0 88 45 88q26 0 39 -33v-104zM129 754v180h39v-180h-39zM1769 233v244h23v-244h-23z
M129 997v76h39v-76h-39zM416 291v39l12 102h4l10 -102v-39h-26zM848 291v39l10 102h6l8 -102v-39h-24zM1063 330h22v-97h-22v97zM1063 393v84h22v-84h-22zM633 393v84h22v-84h-22z" />
    <glyph glyph-name="exclamdown" unicode="&#xa1;" horiz-adv-x="392" 
d="M326 750q0 -51 -45 -81q-41 -26 -93 -26q-54 0 -92 26q-45 30 -45 81q0 109 137 109q56 0 94 -26q44 -30 44 -83zM300 -287q0 -59 -47 -73q-20 -6 -96 -6q-79 0 -79 79v825q0 78 79 78q76 0 96 -6q47 -14 47 -72v-825z" />
    <glyph glyph-name="cent" unicode="&#xa2;" horiz-adv-x="1545" 
d="M1430 631q0 -79 -98 -79h-781q-225 0 -324 43q-170 68 -170 247v378q0 291 450 291h836q82 0 82 -89t-82 -89h-821q-254 0 -254 -107v-375q0 -122 289 -122h794q79 0 79 -98zM911 471q0 -79 -78 -79q-77 0 -90 7q-43 16 -43 72v1061q0 78 78 78q73 0 91 -6q42 -14 42 -72
v-1061z" />
    <glyph glyph-name="yen" unicode="&#xa5;" horiz-adv-x="1650" 
d="M1101 188q0 -55 -58 -55h-121v-62q0 -58 -47 -73q-20 -6 -95 -6q-79 0 -79 78v63h-155q-20 0 -31.5 2.5t-17.5 9t-8 19t-2 33.5q0 56 59 56h155v89h-155q-41 0 -51 13q-8 11 -8 52q0 55 59 55h155v39l-601 575q-34 33 -34 68q0 66 89 66q101 0 123 -22l533 -511l535 511
q22 22 123 22q90 0 90 -65q0 -35 -36 -69l-599 -575v-39h119q40 0 49 -11t9 -53q0 -56 -58 -56h-120v-89h120q41 0 51 -13q7 -7 7 -52z" />
    <glyph glyph-name="dieresis" unicode="&#xa8;" horiz-adv-x="1129" 
d="M908 1219q0 -21 -9 -37.5t-23.5 -28t-34 -18t-40.5 -6.5q-41 0 -73 23q-34 25 -34 67t34 67q31 24 73 24q21 0 40.5 -6.5t34 -18.5t23.5 -28.5t9 -37.5zM560 1219q0 -40 -33 -65q-31 -25 -73 -25t-74 23q-34 25 -34 67t34 67q31 24 73 24q21 0 40.5 -6.5t34 -18.5
t23.5 -28.5t9 -37.5z" />
    <glyph glyph-name="registered" unicode="&#xae;" horiz-adv-x="1333" 
d="M849 931q0 60 -108 60h-252v-194h265q95 0 95 56v78zM938 853q0 -139 -193 -140h-93l270 -182q21 -8 21 -31q0 -17 -13.5 -31.5t-35.5 -14.5q-2 0 -24 6l-381 258v-211q0 -49 -49 -49q-45 0 -45 49v542q0 28 25 28h308q210 0 210 -147v-77zM1136 759q0 196 -135 342
q-134 141 -324 141q-192 0 -325 -141q-133 -139 -133 -342q0 -204 133 -343q136 -142 325 -142t324 142t135 343zM1230 759q0 -240 -162 -412q-164 -167 -391 -167t-388 167q-160 172 -160 412q0 238 160 407q160 172 388 172q227 0 390 -172q163 -166 163 -407z" />
    <glyph glyph-name="degree" unicode="&#xb0;" horiz-adv-x="771" 
d="M688 1078q0 -130 -89 -219q-88 -88 -219 -88t-219 88t-88 219t88 219q89 89 219 89t219 -89t89 -219zM603 1079q0 95 -64 159t-159 64t-159 -64t-64 -159t64 -159t159 -64t159 64t64 159z" />
    <glyph glyph-name="acute" unicode="&#xb4;" horiz-adv-x="897" 
d="M621 1302q0 -21 -146 -167q-66 -66 -102 -101.5t-44 -40.5q-23 -15 -46 -15q-67 0 -67 56q0 20 18 38l279 276q13 13 34 13q27 0 50.5 -17t23.5 -42z" />
    <glyph glyph-name="paragraph" unicode="&#xb6;" horiz-adv-x="1377" 
d="M217 940q0 -138 163 -138h602v262h-611q-154 0 -154 -124zM1073 -8q-91 0 -91 76v589h-261v-589q0 -73 -92 -73q-90 0 -90 73v589h-135q-363 0 -363 283q0 269 353 269h710q60 0 60 -60v-1081q0 -76 -91 -76z" />
    <glyph glyph-name="cedilla" unicode="&#xb8;" horiz-adv-x="397" 
d="M357 -107q0 -244 -191 -244h-180q-78 0 -78 92q0 89 78 89h100q47 0 59 49q2 23 3.5 45t3.5 44q18 48 103 48q102 0 102 -78v-45z" />
    <glyph glyph-name="questiondown" unicode="&#xbf;" horiz-adv-x="1144" 
d="M55 106q0 148 184 224q138 57 313 57h235q54 0 54 65q0 6 -0.5 17t-1.5 22t-1.5 22t-0.5 17q0 60 40 76q30 8 92 8q83 0 83 -114q0 -8 -0.5 -19.5t-1.5 -27.5q-1 -15 -1.5 -26.5t-0.5 -19.5q0 -198 -352 -198h-30h-20h-11q-10 0 -11 1q-23 1 -41 1.5t-30 0.5
q-91 0 -172 -21q-116 -30 -116 -90v-136q0 -147 333 -147q79 0 79 -98q0 -56 -41 -71q-13 -7 -89 -7q-196 0 -323 64q-169 82 -169 256v144zM812 744q0 52 44 82q38 26 93 26q53 0 94 -26q44 -29 44 -82q0 -52 -44 -82q-38 -26 -93 -26t-93 26q-45 30 -45 82z" />
    <glyph glyph-name="Agrave" unicode="&#xc0;" horiz-adv-x="1785" 
d="M1730 75q0 -46 -31 -77t-77 -31q-64 0 -104 60l-197 286h-936l-197 -286q-32 -47 -69 -47t-71 24q-38 26 -38 61q0 11 6 20l702 1073q43 66 148 66q78 0 104 -44q2 -3 4.5 -8.5t7.5 -13.5l744 -1053q4 -7 4 -30zM1191 497l-337 497l-339 -497h676zM964 1323
q0 -56 -67 -56q-22 0 -45 14q-21 15 -148 142q-63 63 -97 98.5t-39 45.5q-9 13 -9 24q0 25 23.5 42t50.5 17q21 0 34 -13l279 -276q18 -18 18 -38z" />
    <glyph glyph-name="Aacute" unicode="&#xc1;" horiz-adv-x="1785" 
d="M1730 75q0 -46 -31 -77t-77 -31q-64 0 -104 60l-197 286h-936l-197 -286q-32 -47 -69 -47t-71 24q-38 26 -38 61q0 11 6 20l702 1073q43 66 148 66q78 0 104 -44q2 -3 4.5 -8.5t7.5 -13.5l744 -1053q4 -7 4 -30zM1191 497l-337 497l-339 -497h676zM1078 1593
q0 -21 -146 -167q-66 -66 -102 -101.5t-44 -40.5q-23 -15 -46 -15q-67 0 -67 56q0 20 18 38l279 276q13 13 34 13q27 0 50.5 -17t23.5 -42z" />
    <glyph glyph-name="Acircumflex" unicode="&#xc2;" horiz-adv-x="1785" 
d="M1730 75q0 -46 -31 -77t-77 -31q-64 0 -104 60l-197 286h-936l-197 -286q-32 -47 -69 -47t-71 24q-38 26 -38 61q0 11 6 20l702 1073q43 66 148 66q78 0 104 -44q2 -3 4.5 -8.5t7.5 -13.5l744 -1053q4 -7 4 -30zM1191 497l-337 497l-339 -497h676zM1213 1321
q0 -58 -69 -58q-35 0 -69 31q-10 10 -24 23.5t-33 32.5q-15 14 -53 50t-101 94q-70 -72 -126 -124t-98 -87q-23 -18 -51 -18q-73 0 -73 58q0 17 16 33l266 267q29 29 66 29t66 -29l267 -267q16 -16 16 -35z" />
    <glyph glyph-name="Atilde" unicode="&#xc3;" horiz-adv-x="1785" 
d="M1730 75q0 -46 -31 -77t-77 -31q-64 0 -104 60l-197 286h-936l-197 -286q-32 -47 -69 -47t-71 24q-38 26 -38 61q0 11 6 20l702 1073q43 66 148 66q78 0 104 -44q2 -3 4.5 -8.5t7.5 -13.5l744 -1053q4 -7 4 -30zM1191 497l-337 497l-339 -497h676zM1252 1489
q0 -48 -18 -60q-14 -8 -61 -8h-656q-58 0 -68 12q-11 14 -11 69q0 68 79 68h656q55 0 67 -13q12 -14 12 -68z" />
    <glyph glyph-name="Adieresis" unicode="&#xc4;" horiz-adv-x="1785" 
d="M1730 75q0 -46 -31 -77t-77 -31q-64 0 -104 60l-197 286h-936l-197 -286q-32 -47 -69 -47t-71 24q-38 26 -38 61q0 11 6 20l702 1073q43 66 148 66q78 0 104 -44q2 -3 4.5 -8.5t7.5 -13.5l744 -1053q4 -7 4 -30zM1191 497l-337 497l-339 -497h676zM1149 1559
q0 -21 -9 -37.5t-23.5 -28t-34 -18t-40.5 -6.5q-41 0 -73 23q-34 25 -34 67t34 67q31 24 73 24q21 0 40.5 -6.5t34 -18.5t23.5 -28.5t9 -37.5zM801 1559q0 -40 -33 -65q-31 -25 -73 -25t-74 23q-34 25 -34 67t34 67q31 24 73 24q21 0 40.5 -6.5t34 -18.5t23.5 -28.5t9 -37.5
z" />
    <glyph glyph-name="Aring" unicode="&#xc5;" horiz-adv-x="1785" 
d="M1730 75q0 -46 -31 -77t-77 -31q-64 0 -104 60l-197 286h-936l-197 -286q-32 -47 -69 -47t-71 24q-38 26 -38 61q0 11 6 20l702 1073q43 66 148 66q78 0 104 -44q2 -3 4.5 -8.5t7.5 -13.5l744 -1053q4 -7 4 -30zM1191 497l-337 497l-339 -497h676zM1059 1483
q0 -79 -57 -128q-55 -49 -135 -49q-78 0 -133 49q-58 51 -58 128q0 78 57 128q54 48 134 48q78 0 134 -48q58 -51 58 -128zM989 1483q0 49 -36 81q-38 32 -86 32t-86 -32q-36 -32 -36 -81q0 -50 36 -81q38 -32 86 -32t86 32q36 31 36 81z" />
    <glyph glyph-name="AE" unicode="&#xc6;" horiz-adv-x="1749" 
d="M1665 601q0 -97 -83 -97h-489v-200q0 -129 285 -129h204q78 0 78 -79q0 -104 -78 -104h-214q-207 0 -328 61q-169 81 -169 260h-470l-197 -286q-32 -47 -69 -47t-71 24q-38 26 -38 61q0 11 6 20l702 1073q43 67 150 67q114 0 114 -106q133 91 389 91h187q77 0 77 -102
q0 -79 -77 -79h-25h-16h-9q-8 0 -9 1q-20 1 -34.5 1.5t-24.5 0.5q-365 0 -365 -132v-213h492q82 0 82 -86zM870 497v497l-339 -497h339z" />
    <glyph glyph-name="Ccedilla" unicode="&#xc7;" horiz-adv-x="1565" 
d="M1423 1108q0 -79 -78 -79h-791q-288 0 -288 -115v-603q0 -136 319 -136h755q81 0 81 -91q0 -92 -81 -92h-755q-153 0 -220 12q-73 14 -152 54q-90 47 -126 98q-43 58 -43 151v606q0 115 105 196q88 67 214 90q32 5 78 8t109 3h795q78 0 78 -102zM938 -67
q0 -244 -191 -244h-180q-78 0 -78 92q0 89 78 89h100q47 0 59 49q2 23 3.5 45t3.5 44q18 48 103 48q102 0 102 -78v-45z" />
    <glyph glyph-name="Egrave" unicode="&#xc8;" horiz-adv-x="1479" 
d="M1427 601q0 -97 -83 -97h-1069v-200q0 -129 285 -129h784q78 0 78 -79q0 -104 -78 -104h-794q-174 0 -319 62q-178 81 -178 242v604q0 87 59 158q128 152 457 152h217q77 0 77 -102q0 -79 -77 -79h-32h-20h-11q-11 0 -12 1q-25 1 -43 1.5t-30 0.5q-365 0 -365 -132v-213
h1072q82 0 82 -86zM878 1318q0 -56 -67 -56q-22 0 -45 14q-21 15 -148 142q-63 63 -97 98.5t-39 45.5q-9 13 -9 24q0 25 23.5 42t50.5 17q21 0 34 -13l279 -276q18 -18 18 -38z" />
    <glyph glyph-name="Eacute" unicode="&#xc9;" horiz-adv-x="1479" 
d="M1427 601q0 -97 -83 -97h-1069v-200q0 -129 285 -129h784q78 0 78 -79q0 -104 -78 -104h-794q-174 0 -319 62q-178 81 -178 242v604q0 87 59 158q128 152 457 152h217q77 0 77 -102q0 -79 -77 -79h-32h-20h-11q-11 0 -12 1q-25 1 -43 1.5t-30 0.5q-365 0 -365 -132v-213
h1072q82 0 82 -86zM1079 1598q0 -21 -146 -167q-66 -66 -102 -101.5t-44 -40.5q-23 -15 -46 -15q-67 0 -67 56q0 20 18 38l279 276q13 13 34 13q27 0 50.5 -17t23.5 -42z" />
    <glyph glyph-name="Ecircumflex" unicode="&#xca;" horiz-adv-x="1479" 
d="M1427 601q0 -97 -83 -97h-1069v-200q0 -129 285 -129h784q78 0 78 -79q0 -104 -78 -104h-794q-174 0 -319 62q-178 81 -178 242v604q0 87 59 158q128 152 457 152h217q77 0 77 -102q0 -79 -77 -79h-32h-20h-11q-11 0 -12 1q-25 1 -43 1.5t-30 0.5q-365 0 -365 -132v-213
h1072q82 0 82 -86zM995 1325q0 -58 -69 -58q-35 0 -69 31q-10 10 -24 23.5t-33 32.5q-15 14 -53 50t-101 94q-70 -72 -126 -124t-98 -87q-23 -18 -51 -18q-73 0 -73 58q0 17 16 33l266 267q29 29 66 29t66 -29l267 -267q16 -16 16 -35z" />
    <glyph glyph-name="Edieresis" unicode="&#xcb;" horiz-adv-x="1479" 
d="M1427 601q0 -97 -83 -97h-1069v-200q0 -129 285 -129h784q78 0 78 -79q0 -104 -78 -104h-794q-174 0 -319 62q-178 81 -178 242v604q0 87 59 158q128 152 457 152h217q77 0 77 -102q0 -79 -77 -79h-32h-20h-11q-11 0 -12 1q-25 1 -43 1.5t-30 0.5q-365 0 -365 -132v-213
h1072q82 0 82 -86zM908 1569q0 -21 -9 -37.5t-23.5 -28t-34 -18t-40.5 -6.5q-41 0 -73 23q-34 25 -34 67t34 67q31 24 73 24q21 0 40.5 -6.5t34 -18.5t23.5 -28.5t9 -37.5zM560 1569q0 -40 -33 -65q-31 -25 -73 -25t-74 23q-34 25 -34 67t34 67q31 24 73 24q21 0 40.5 -6.5
t34 -18.5t23.5 -28.5t9 -37.5z" />
    <glyph glyph-name="Igrave" unicode="&#xcc;" horiz-adv-x="394" 
d="M304 71q0 -79 -78 -79q-34 0 -58 1.5t-38 3.5q-48 15 -48 74v1061q0 59 47 73q11 2 35 3.5t62 1.5q78 0 78 -78v-1061zM384 1319q0 -56 -67 -56q-22 0 -45 14q-21 15 -148 142q-63 63 -97 98.5t-39 45.5q-9 13 -9 24q0 25 23.5 42t50.5 17q21 0 34 -13l279 -276
q18 -18 18 -38z" />
    <glyph glyph-name="Iacute" unicode="&#xcd;" horiz-adv-x="388" 
d="M300 71q0 -79 -78 -79q-34 0 -58 1.5t-38 3.5q-48 15 -48 74v1061q0 59 47 73q11 2 35 3.5t62 1.5q78 0 78 -78v-1061zM412 1599q0 -21 -146 -167q-66 -66 -102 -101.5t-44 -40.5q-23 -15 -46 -15q-67 0 -67 56q0 20 18 38l279 276q13 13 34 13q27 0 50.5 -17t23.5 -42z
" />
    <glyph glyph-name="Icircumflex" unicode="&#xce;" horiz-adv-x="585" 
d="M381 71q0 -79 -78 -79q-34 0 -58 1.5t-38 3.5q-48 15 -48 74v1061q0 59 47 73q11 2 35 3.5t62 1.5q78 0 78 -78v-1061zM632 1331q0 -58 -69 -58q-35 0 -69 31q-10 10 -24 23.5t-33 32.5q-15 14 -53 50t-101 94q-70 -72 -126 -124t-98 -87q-23 -18 -51 -18q-73 0 -73 58
q0 17 16 33l266 267q29 29 66 29t66 -29l267 -267q16 -16 16 -35z" />
    <glyph glyph-name="Idieresis" unicode="&#xcf;" horiz-adv-x="495" 
d="M351 71q0 -79 -78 -79q-34 0 -58 1.5t-38 3.5q-48 15 -48 74v1061q0 59 47 73q11 2 35 3.5t62 1.5q78 0 78 -78v-1061zM538 1570q0 -21 -9 -37.5t-23.5 -28t-34 -18t-40.5 -6.5q-41 0 -73 23q-34 25 -34 67t34 67q31 24 73 24q21 0 40.5 -6.5t34 -18.5t23.5 -28.5
t9 -37.5zM190 1570q0 -40 -33 -65q-31 -25 -73 -25t-74 23q-34 25 -34 67t34 67q31 24 73 24q21 0 40.5 -6.5t34 -18.5t23.5 -28.5t9 -37.5z" />
    <glyph glyph-name="Ntilde" unicode="&#xd1;" horiz-adv-x="1650" 
d="M1590 123q0 -139 -122 -139q-56 0 -127 59l-1037 881v-853q0 -59 -48 -74q-14 -2 -38 -3.5t-58 -1.5q-78 0 -78 79v1016q0 132 114 132q72 0 148 -64l1023 -871v848q0 58 48 73q14 2 38 3.5t58 1.5q79 0 79 -78v-1009zM1314 1504q0 -48 -18 -60q-14 -8 -61 -8h-656
q-58 0 -68 12q-11 14 -11 69q0 68 79 68h656q55 0 67 -13q12 -14 12 -68z" />
    <glyph glyph-name="Ograve" unicode="&#xd2;" horiz-adv-x="1605" 
d="M1541 319q0 -327 -565 -327h-346q-229 0 -361 58q-202 82 -202 268v562q0 330 563 330h346q263 0 371 -46q194 -75 194 -284v-561zM1318 324v551q0 154 -337 154h-352q-340 0 -340 -154v-551q0 -149 340 -149h353q336 0 336 149zM914 1323q0 -56 -67 -56q-22 0 -45 14
q-21 15 -148 142q-63 63 -97 98.5t-39 45.5q-9 13 -9 24q0 25 23.5 42t50.5 17q21 0 34 -13l279 -276q18 -18 18 -38z" />
    <glyph glyph-name="Oacute" unicode="&#xd3;" horiz-adv-x="1605" 
d="M1541 319q0 -327 -565 -327h-346q-229 0 -361 58q-202 82 -202 268v562q0 330 563 330h346q263 0 371 -46q194 -75 194 -284v-561zM1318 324v551q0 154 -337 154h-352q-340 0 -340 -154v-551q0 -149 340 -149h353q336 0 336 149zM997 1602q0 -21 -146 -167
q-66 -66 -102 -101.5t-44 -40.5q-23 -15 -46 -15q-67 0 -67 56q0 20 18 38l279 276q13 13 34 13q27 0 50.5 -17t23.5 -42z" />
    <glyph glyph-name="Ocircumflex" unicode="&#xd4;" horiz-adv-x="1605" 
d="M1541 319q0 -327 -565 -327h-346q-229 0 -361 58q-202 82 -202 268v562q0 330 563 330h346q263 0 371 -46q194 -75 194 -284v-561zM1318 324v551q0 154 -337 154h-352q-340 0 -340 -154v-551q0 -149 340 -149h353q336 0 336 149zM1163 1321q0 -58 -69 -58q-35 0 -69 31
q-10 10 -24 23.5t-33 32.5q-15 14 -53 50t-101 94q-70 -72 -126 -124t-98 -87q-23 -18 -51 -18q-73 0 -73 58q0 17 16 33l266 267q29 29 66 29t66 -29l267 -267q16 -16 16 -35z" />
    <glyph glyph-name="Otilde" unicode="&#xd5;" horiz-adv-x="1605" 
d="M1541 319q0 -327 -565 -327h-346q-229 0 -361 58q-202 82 -202 268v562q0 330 563 330h346q263 0 371 -46q194 -75 194 -284v-561zM1318 324v551q0 154 -337 154h-352q-340 0 -340 -154v-551q0 -149 340 -149h353q336 0 336 149zM1220 1503q0 -48 -18 -60q-14 -8 -61 -8
h-656q-58 0 -68 12q-11 14 -11 69q0 68 79 68h656q55 0 67 -13q12 -14 12 -68z" />
    <glyph glyph-name="Odieresis" unicode="&#xd6;" horiz-adv-x="1605" 
d="M1541 319q0 -327 -565 -327h-346q-229 0 -361 58q-202 82 -202 268v562q0 330 563 330h346q263 0 371 -46q194 -75 194 -284v-561zM1318 324v551q0 154 -337 154h-352q-340 0 -340 -154v-551q0 -149 340 -149h353q336 0 336 149zM1092 1572q0 -21 -9 -37.5t-23.5 -28
t-34 -18t-40.5 -6.5q-41 0 -73 23q-34 25 -34 67t34 67q31 24 73 24q21 0 40.5 -6.5t34 -18.5t23.5 -28.5t9 -37.5zM744 1572q0 -40 -33 -65q-31 -25 -73 -25t-74 23q-34 25 -34 67t34 67q31 24 73 24q21 0 40.5 -6.5t34 -18.5t23.5 -28.5t9 -37.5z" />
    <glyph glyph-name="Oslash" unicode="&#xd8;" horiz-adv-x="1650" 
d="M312 292l770 744q-41 3 -86 3h-352q-340 0 -340 -154v-551q0 -12 8 -42zM1302 964l-798 -771q31 -4 65.5 -6t74.5 -2h353q336 0 336 149v551q0 48 -31 79zM1556 890v-561q0 -327 -565 -327h-346q-563 0 -563 326v562q0 330 563 330h346q265 0 388 -51q177 -75 177 -279z
" />
    <glyph glyph-name="Ugrave" unicode="&#xd9;" horiz-adv-x="1642" 
d="M1567 335q0 -347 -665 -347q-20 0 -50.5 0.5t-70.5 1.5t-70 1.5t-50 0.5q-468 0 -563 176q-33 61 -33 167v797q0 78 78 78q75 0 96 -6q49 -15 49 -72v-782q0 -116 141 -155q42 -10 99.5 -15t135.5 -5h306q175 0 235 19q141 37 141 155v783q0 58 47 72q19 6 96 6
q78 0 78 -78v-797zM989 1330q0 -56 -67 -56q-22 0 -45 14q-21 15 -148 142q-63 63 -97 98.5t-39 45.5q-9 13 -9 24q0 25 23.5 42t50.5 17q21 0 34 -13l279 -276q18 -18 18 -38z" />
    <glyph glyph-name="Uacute" unicode="&#xda;" horiz-adv-x="1642" 
d="M1567 335q0 -347 -665 -347q-20 0 -50.5 0.5t-70.5 1.5t-70 1.5t-50 0.5q-468 0 -563 176q-33 61 -33 167v797q0 78 78 78q75 0 96 -6q49 -15 49 -72v-782q0 -116 141 -155q42 -10 99.5 -15t135.5 -5h306q175 0 235 19q141 37 141 155v783q0 58 47 72q19 6 96 6
q78 0 78 -78v-797zM1031 1593q0 -21 -146 -167q-66 -66 -102 -101.5t-44 -40.5q-23 -15 -46 -15q-67 0 -67 56q0 20 18 38l279 276q13 13 34 13q27 0 50.5 -17t23.5 -42z" />
    <glyph glyph-name="Ucircumflex" unicode="&#xdb;" horiz-adv-x="1642" 
d="M1567 335q0 -347 -665 -347q-20 0 -50.5 0.5t-70.5 1.5t-70 1.5t-50 0.5q-468 0 -563 176q-33 61 -33 167v797q0 78 78 78q75 0 96 -6q49 -15 49 -72v-782q0 -116 141 -155q42 -10 99.5 -15t135.5 -5h306q175 0 235 19q141 37 141 155v783q0 58 47 72q19 6 96 6
q78 0 78 -78v-797zM1162 1320q0 -58 -69 -58q-35 0 -69 31q-10 10 -24 23.5t-33 32.5q-15 14 -53 50t-101 94q-70 -72 -126 -124t-98 -87q-23 -18 -51 -18q-73 0 -73 58q0 17 16 33l266 267q29 29 66 29t66 -29l267 -267q16 -16 16 -35z" />
    <glyph glyph-name="Udieresis" unicode="&#xdc;" horiz-adv-x="1642" 
d="M1567 335q0 -347 -665 -347q-20 0 -50.5 0.5t-70.5 1.5t-70 1.5t-50 0.5q-468 0 -563 176q-33 61 -33 167v797q0 78 78 78q75 0 96 -6q49 -15 49 -72v-782q0 -116 141 -155q42 -10 99.5 -15t135.5 -5h306q175 0 235 19q141 37 141 155v783q0 58 47 72q19 6 96 6
q78 0 78 -78v-797zM1100 1566q0 -21 -9 -37.5t-23.5 -28t-34 -18t-40.5 -6.5q-41 0 -73 23q-34 25 -34 67t34 67q31 24 73 24q21 0 40.5 -6.5t34 -18.5t23.5 -28.5t9 -37.5zM752 1566q0 -40 -33 -65q-31 -25 -73 -25t-74 23q-34 25 -34 67t34 67q31 24 73 24q21 0 40.5 -6.5
t34 -18.5t23.5 -28.5t9 -37.5z" />
    <glyph glyph-name="germandbls" unicode="&#xdf;" horiz-adv-x="1686" 
d="M1622 313q0 -181 -179 -262q-141 -59 -338 -59h-365q-78 0 -78 79q0 104 78 104h365q295 0 295 129v115q0 102 -286 102h-374q-78 0 -78 105q0 78 78 78h375q285 0 285 109v115q0 72 -120 93q-23 4 -66 6t-109 2h-601q-68 0 -114 -25q-61 -31 -61 -91v-853q0 -57 -44 -72
q-13 -7 -92 -7q-78 0 -78 80v852q0 143 100 224q91 76 238 76h650q207 0 336 -44q183 -68 183 -248q0 -130 -9 -169q-20 -83 -95 -135q77 -56 95 -135q9 -39 9 -169z" />
    <glyph glyph-name="agrave" unicode="&#xe0;" horiz-adv-x="1518" 
d="M1460 280q0 -288 -432 -288h-516q-166 0 -287 61q-163 78 -163 217v122q0 150 155 225q115 58 288 58h746q-17 101 -286 101q-11 0 -26.5 -0.5t-35.5 -1.5q-1 -1 -10 -1h-9h-16h-25q-78 0 -78 99q0 79 78 79q253 0 387 -35q230 -65 230 -260v-376zM1253 330q0 14 -0.5 35
t-1.5 49t-1.5 49t-0.5 35h-749q-66 0 -136 -24q-91 -31 -91 -81v-121q0 -53 94 -81q60 -22 139 -22h524q118 0 162 23q61 31 61 138zM946 1056q0 -56 -67 -56q-22 0 -45 14q-21 15 -148 142q-63 63 -97 98.5t-39 45.5q-9 13 -9 24q0 25 23.5 42t50.5 17q21 0 34 -13
l279 -276q18 -18 18 -38z" />
    <glyph glyph-name="aacute" unicode="&#xe1;" horiz-adv-x="1518" 
d="M1460 280q0 -288 -432 -288h-516q-166 0 -287 61q-163 78 -163 217v122q0 150 155 225q115 58 288 58h746q-17 101 -286 101q-11 0 -26.5 -0.5t-35.5 -1.5q-1 -1 -10 -1h-9h-16h-25q-78 0 -78 99q0 79 78 79q253 0 387 -35q230 -65 230 -260v-376zM1253 330q0 14 -0.5 35
t-1.5 49t-1.5 49t-0.5 35h-749q-66 0 -136 -24q-91 -31 -91 -81v-121q0 -53 94 -81q60 -22 139 -22h524q118 0 162 23q61 31 61 138zM1116 1326q0 -21 -146 -167q-66 -66 -102 -101.5t-44 -40.5q-23 -15 -46 -15q-67 0 -67 56q0 20 18 38l279 276q13 13 34 13q27 0 50.5 -17
t23.5 -42z" />
    <glyph glyph-name="acircumflex" unicode="&#xe2;" horiz-adv-x="1518" 
d="M1460 280q0 -288 -432 -288h-516q-166 0 -287 61q-163 78 -163 217v122q0 150 155 225q115 58 288 58h746q-17 101 -286 101q-11 0 -26.5 -0.5t-35.5 -1.5q-1 -1 -10 -1h-9h-16h-25q-78 0 -78 99q0 79 78 79q253 0 387 -35q230 -65 230 -260v-376zM1253 330q0 14 -0.5 35
t-1.5 49t-1.5 49t-0.5 35h-749q-66 0 -136 -24q-91 -31 -91 -81v-121q0 -53 94 -81q60 -22 139 -22h524q118 0 162 23q61 31 61 138zM1317 1051q0 -58 -69 -58q-35 0 -69 31q-10 10 -24 23.5t-33 32.5q-15 14 -53 50t-101 94q-70 -72 -126 -124t-98 -87q-23 -18 -51 -18
q-73 0 -73 58q0 17 16 33l266 267q29 29 66 29t66 -29l267 -267q16 -16 16 -35z" />
    <glyph glyph-name="atilde" unicode="&#xe3;" horiz-adv-x="1518" 
d="M1460 280q0 -288 -432 -288h-516q-166 0 -287 61q-163 78 -163 217v122q0 150 155 225q115 58 288 58h746q-17 101 -286 101q-11 0 -26.5 -0.5t-35.5 -1.5q-1 -1 -10 -1h-9h-16h-25q-78 0 -78 99q0 79 78 79q253 0 387 -35q230 -65 230 -260v-376zM1253 330q0 14 -0.5 35
t-1.5 49t-1.5 49t-0.5 35h-749q-66 0 -136 -24q-91 -31 -91 -81v-121q0 -53 94 -81q60 -22 139 -22h524q118 0 162 23q61 31 61 138zM1420 1209q0 -48 -18 -60q-14 -8 -61 -8h-656q-58 0 -68 12q-11 14 -11 69q0 68 79 68h656q55 0 67 -13q12 -14 12 -68z" />
    <glyph glyph-name="adieresis" unicode="&#xe4;" horiz-adv-x="1518" 
d="M1460 280q0 -288 -432 -288h-516q-166 0 -287 61q-163 78 -163 217v122q0 150 155 225q115 58 288 58h746q-17 101 -286 101q-11 0 -26.5 -0.5t-35.5 -1.5q-1 -1 -10 -1h-9h-16h-25q-78 0 -78 99q0 79 78 79q253 0 387 -35q230 -65 230 -260v-376zM1253 330q0 14 -0.5 35
t-1.5 49t-1.5 49t-0.5 35h-749q-66 0 -136 -24q-91 -31 -91 -81v-121q0 -53 94 -81q60 -22 139 -22h524q118 0 162 23q61 31 61 138zM1225 1269q0 -21 -9 -37.5t-23.5 -28t-34 -18t-40.5 -6.5q-41 0 -73 23q-34 25 -34 67t34 67q31 24 73 24q21 0 40.5 -6.5t34 -18.5
t23.5 -28.5t9 -37.5zM877 1269q0 -40 -33 -65q-31 -25 -73 -25t-74 23q-34 25 -34 67t34 67q31 24 73 24q21 0 40.5 -6.5t34 -18.5t23.5 -28.5t9 -37.5z" />
    <glyph glyph-name="aring" unicode="&#xe5;" horiz-adv-x="1518" 
d="M1460 280q0 -288 -432 -288h-516q-166 0 -287 61q-163 78 -163 217v122q0 150 155 225q115 58 288 58h746q-17 101 -286 101q-11 0 -26.5 -0.5t-35.5 -1.5q-1 -1 -10 -1h-9h-16h-25q-78 0 -78 99q0 79 78 79q253 0 387 -35q230 -65 230 -260v-376zM1253 330q0 14 -0.5 35
t-1.5 49t-1.5 49t-0.5 35h-749q-66 0 -136 -24q-91 -31 -91 -81v-121q0 -53 94 -81q60 -22 139 -22h524q118 0 162 23q61 31 61 138zM1108 1190q0 -79 -57 -128q-55 -49 -135 -49q-78 0 -133 49q-58 51 -58 128q0 78 57 128q54 48 134 48q78 0 134 -48q58 -51 58 -128z
M1038 1190q0 49 -36 81q-38 32 -86 32t-86 -32q-36 -32 -36 -81q0 -50 36 -81q38 -32 86 -32t86 32q36 31 36 81z" />
    <glyph glyph-name="ae" unicode="&#xe6;" horiz-adv-x="2120" 
d="M2026 455q0 -87 -59 -87h-789v-7q0 -141 159 -178q29 -7 96 -10.5t176 -3.5q78 0 78 -98q0 -63 -57 -76q-14 -3 -108 -3q-331 0 -443 88q-106 -88 -346 -88h-196q-146 0 -287 62q-163 76 -163 216v122q0 150 155 225q115 58 288 58h426q-17 101 -286 101
q-10 0 -25.5 -0.5t-35.5 -1.5q-1 -1 -10 -1h-9h-17h-25q-78 0 -78 99q0 79 101 79q368 0 499 -98q97 70 255 89q40 5 107.5 7.5t167.5 2.5q159 0 275 -54q151 -70 151 -212v-231zM1820 551v118q0 108 -279 108q-370 0 -370 -116v-110h649zM958 330q0 14 -0.5 35t-1.5 49
t-1.5 49t-0.5 35h-429q-66 0 -136 -24q-91 -31 -91 -81v-121q0 -53 94 -81q60 -22 139 -22h204q120 0 160 22q63 33 63 139z" />
    <glyph glyph-name="ccedilla" unicode="&#xe7;" horiz-adv-x="1530" 
d="M1421 71q0 -79 -98 -79h-781q-225 0 -324 43q-170 68 -170 247v378q0 291 450 291h836q82 0 82 -89t-82 -89h-821q-254 0 -254 -107v-375q0 -122 289 -122h794q79 0 79 -98zM975 -97q0 -244 -191 -244h-180q-78 0 -78 92q0 89 78 89h100q47 0 59 49q2 23 3.5 45t3.5 44
q18 48 103 48q102 0 102 -78v-45z" />
    <glyph glyph-name="egrave" unicode="&#xe8;" horiz-adv-x="1429" 
d="M1364 455q0 -87 -59 -87h-1049v-7q0 -136 160 -175q35 -8 101.5 -12.5t169.5 -4.5q78 0 78 -98q0 -79 -78 -79q-106 0 -173.5 1.5t-102.5 5.5q-174 18 -256 82q-117 91 -117 214v353q0 166 180 246q123 58 326 58h394q166 0 275 -55q151 -70 151 -211v-231zM1158 551v118
q0 108 -429 108q-253 0 -347 -18q-133 -25 -133 -98v-110h909zM853 1051q0 -56 -67 -56q-22 0 -45 14q-21 15 -148 142q-63 63 -97 98.5t-39 45.5q-9 13 -9 24q0 25 23.5 42t50.5 17q21 0 34 -13l279 -276q18 -18 18 -38z" />
    <glyph glyph-name="eacute" unicode="&#xe9;" horiz-adv-x="1429" 
d="M1364 455q0 -87 -59 -87h-1049v-7q0 -136 160 -175q35 -8 101.5 -12.5t169.5 -4.5q78 0 78 -98q0 -79 -78 -79q-106 0 -173.5 1.5t-102.5 5.5q-174 18 -256 82q-117 91 -117 214v353q0 166 180 246q123 58 326 58h394q166 0 275 -55q151 -70 151 -211v-231zM1158 551v118
q0 108 -429 108q-253 0 -347 -18q-133 -25 -133 -98v-110h909zM1008 1319q0 -21 -146 -167q-66 -66 -102 -101.5t-44 -40.5q-23 -15 -46 -15q-67 0 -67 56q0 20 18 38l279 276q13 13 34 13q27 0 50.5 -17t23.5 -42z" />
    <glyph glyph-name="ecircumflex" unicode="&#xea;" horiz-adv-x="1429" 
d="M1364 455q0 -87 -59 -87h-1049v-7q0 -136 160 -175q35 -8 101.5 -12.5t169.5 -4.5q78 0 78 -98q0 -79 -78 -79q-106 0 -173.5 1.5t-102.5 5.5q-174 18 -256 82q-117 91 -117 214v353q0 166 180 246q123 58 326 58h394q166 0 275 -55q151 -70 151 -211v-231zM1158 551v118
q0 108 -429 108q-253 0 -347 -18q-133 -25 -133 -98v-110h909zM1064 1046q0 -58 -69 -58q-35 0 -69 31q-10 10 -24 23.5t-33 32.5q-15 14 -53 50t-101 94q-70 -72 -126 -124t-98 -87q-23 -18 -51 -18q-73 0 -73 58q0 17 16 33l266 267q29 29 66 29t66 -29l267 -267
q16 -16 16 -35z" />
    <glyph glyph-name="edieresis" unicode="&#xeb;" horiz-adv-x="1429" 
d="M1364 455q0 -87 -59 -87h-1049v-7q0 -136 160 -175q35 -8 101.5 -12.5t169.5 -4.5q78 0 78 -98q0 -79 -78 -79q-106 0 -173.5 1.5t-102.5 5.5q-174 18 -256 82q-117 91 -117 214v353q0 166 180 246q123 58 326 58h394q166 0 275 -55q151 -70 151 -211v-231zM1158 551v118
q0 108 -429 108q-253 0 -347 -18q-133 -25 -133 -98v-110h909zM1012 1275q0 -21 -9 -37.5t-23.5 -28t-34 -18t-40.5 -6.5q-41 0 -73 23q-34 25 -34 67t34 67q31 24 73 24q21 0 40.5 -6.5t34 -18.5t23.5 -28.5t9 -37.5zM664 1275q0 -40 -33 -65q-31 -25 -73 -25t-74 23
q-34 25 -34 67t34 67q31 24 73 24q21 0 40.5 -6.5t34 -18.5t23.5 -28.5t9 -37.5z" />
    <glyph glyph-name="igrave" unicode="&#xec;" horiz-adv-x="377" 
d="M310 71q0 -79 -79 -79q-77 0 -90 7q-41 15 -41 72v725q0 78 79 78q76 0 89 -7q42 -15 42 -71v-725zM347 1060q0 -56 -67 -56q-22 0 -45 14q-21 15 -148 142q-63 63 -97 98.5t-39 45.5q-9 13 -9 24q0 25 23.5 42t50.5 17q21 0 34 -13l279 -276q18 -18 18 -38z" />
    <glyph glyph-name="iacute" unicode="&#xed;" horiz-adv-x="377" 
d="M314 71q0 -79 -79 -79q-77 0 -90 7q-41 15 -41 72v725q0 78 79 78q76 0 89 -7q42 -15 42 -71v-725zM417 1303q0 -21 -146 -167q-66 -66 -102 -101.5t-44 -40.5q-23 -15 -46 -15q-67 0 -67 56q0 20 18 38l279 276q13 13 34 13q27 0 50.5 -17t23.5 -42z" />
    <glyph glyph-name="icircumflex" unicode="&#xee;" horiz-adv-x="534" 
d="M374 71q0 -79 -79 -79q-77 0 -90 7q-41 15 -41 72v725q0 78 79 78q76 0 89 -7q42 -15 42 -71v-725zM624 1040q0 -58 -69 -58q-35 0 -69 31q-10 10 -24 23.5t-33 32.5q-15 14 -53 50t-101 94q-70 -72 -126 -124t-98 -87q-23 -18 -51 -18q-73 0 -73 58q0 17 16 33l266 267
q29 29 66 29t66 -29l267 -267q16 -16 16 -35z" />
    <glyph glyph-name="idieresis" unicode="&#xef;" horiz-adv-x="434" 
d="M339 71q0 -79 -79 -79q-77 0 -90 7q-41 15 -41 72v725q0 78 79 78q76 0 89 -7q42 -15 42 -71v-725zM504 1280q0 -21 -9 -37.5t-23.5 -28t-34 -18t-40.5 -6.5q-41 0 -73 23q-34 25 -34 67t34 67q31 24 73 24q21 0 40.5 -6.5t34 -18.5t23.5 -28.5t9 -37.5zM156 1280
q0 -40 -33 -65q-31 -25 -73 -25t-74 23q-34 25 -34 67t34 67q31 24 73 24q21 0 40.5 -6.5t34 -18.5t23.5 -28.5t9 -37.5z" />
    <glyph glyph-name="ntilde" unicode="&#xf1;" horiz-adv-x="1433" 
d="M1381 71q0 -79 -79 -79q-78 0 -91 7q-43 15 -43 72v610q0 65 -108 85q-19 4 -58.5 5.5t-99.5 1.5h-364q-55 0 -92.5 -2t-59.5 -6q-102 -20 -102 -85v-609q0 -79 -78 -79t-91 7q-42 15 -42 72v607q0 273 484 273h345q479 0 479 -271v-609zM1156 1207q0 -48 -18 -60
q-14 -8 -61 -8h-656q-58 0 -68 12q-11 14 -11 69q0 68 79 68h656q55 0 67 -13q12 -14 12 -68z" />
    <glyph glyph-name="ograve" unicode="&#xf2;" horiz-adv-x="1424" 
d="M1363 290q0 -164 -162 -240q-115 -58 -306 -58h-351q-174 0 -315 59q-174 78 -174 239v353q0 161 173 244q127 64 315 64h352q468 0 468 -306v-355zM1149 290v369q0 114 -260 114h-343q-96 0 -172 -24q-108 -35 -108 -106v-353q0 -68 110 -100q73 -21 171 -21h343
q83 0 157 24q102 33 102 97zM812 1051q0 -56 -67 -56q-22 0 -45 14q-21 15 -148 142q-63 63 -97 98.5t-39 45.5q-9 13 -9 24q0 25 23.5 42t50.5 17q21 0 34 -13l279 -276q18 -18 18 -38z" />
    <glyph glyph-name="oacute" unicode="&#xf3;" horiz-adv-x="1424" 
d="M1363 290q0 -164 -162 -240q-115 -58 -306 -58h-351q-174 0 -315 59q-174 78 -174 239v353q0 161 173 244q127 64 315 64h352q468 0 468 -306v-355zM1149 290v369q0 114 -260 114h-343q-96 0 -172 -24q-108 -35 -108 -106v-353q0 -68 110 -100q73 -21 171 -21h343
q83 0 157 24q102 33 102 97zM955 1309q0 -21 -146 -167q-66 -66 -102 -101.5t-44 -40.5q-23 -15 -46 -15q-67 0 -67 56q0 20 18 38l279 276q13 13 34 13q27 0 50.5 -17t23.5 -42z" />
    <glyph glyph-name="ocircumflex" unicode="&#xf4;" horiz-adv-x="1424" 
d="M1373 290q0 -164 -162 -240q-115 -58 -306 -58h-351q-174 0 -315 59q-174 78 -174 239v353q0 161 173 244q127 64 315 64h352q468 0 468 -306v-355zM1159 290v369q0 114 -260 114h-343q-96 0 -172 -24q-108 -35 -108 -106v-353q0 -68 110 -100q73 -21 171 -21h343
q83 0 157 24q102 33 102 97zM1093 1044q0 -58 -69 -58q-35 0 -69 31q-10 10 -24 23.5t-33 32.5q-15 14 -53 50t-101 94q-70 -72 -126 -124t-98 -87q-23 -18 -51 -18q-73 0 -73 58q0 17 16 33l266 267q29 29 66 29t66 -29l267 -267q16 -16 16 -35z" />
    <glyph glyph-name="otilde" unicode="&#xf5;" horiz-adv-x="1424" 
d="M1363 290q0 -164 -162 -240q-115 -58 -306 -58h-351q-174 0 -315 59q-174 78 -174 239v353q0 161 173 244q127 64 315 64h352q468 0 468 -306v-355zM1149 290v369q0 114 -260 114h-343q-96 0 -172 -24q-108 -35 -108 -106v-353q0 -68 110 -100q73 -21 171 -21h343
q83 0 157 24q102 33 102 97zM1138 1209q0 -48 -18 -60q-14 -8 -61 -8h-656q-58 0 -68 12q-11 14 -11 69q0 68 79 68h656q55 0 67 -13q12 -14 12 -68z" />
    <glyph glyph-name="odieresis" unicode="&#xf6;" horiz-adv-x="1424" 
d="M1353 290q0 -164 -162 -240q-115 -58 -306 -58h-351q-174 0 -315 59q-174 78 -174 239v353q0 161 173 244q127 64 315 64h352q468 0 468 -306v-355zM1139 290v369q0 114 -260 114h-343q-96 0 -172 -24q-108 -35 -108 -106v-353q0 -68 110 -100q73 -21 171 -21h343
q83 0 157 24q102 33 102 97zM1014 1274q0 -21 -9 -37.5t-23.5 -28t-34 -18t-40.5 -6.5q-41 0 -73 23q-34 25 -34 67t34 67q31 24 73 24q21 0 40.5 -6.5t34 -18.5t23.5 -28.5t9 -37.5zM666 1274q0 -40 -33 -65q-31 -25 -73 -25t-74 23q-34 25 -34 67t34 67q31 24 73 24
q21 0 40.5 -6.5t34 -18.5t23.5 -28.5t9 -37.5z" />
    <glyph glyph-name="oslash" unicode="&#xf8;" horiz-adv-x="1424" 
d="M451 178q52 -9 115 -9h343q82 0 157 24q102 31 102 97v369q0 32 -21 55zM928 773h-363q-96 0 -172 -24q-108 -35 -108 -106v-353q0 -11 1 -12zM1382 645v-355q0 -164 -162 -240q-115 -58 -306 -58h-351q-253 0 -363 59q-126 67 -126 239v353q0 161 173 244q127 64 315 64
h352q224 0 321 -38q147 -65 147 -268z" />
    <glyph glyph-name="ugrave" unicode="&#xf9;" horiz-adv-x="1474" 
d="M1397 278q0 -289 -612 -289q-17 0 -44 0.5t-63 1.5q-1 1 -8 1h-9h-16h-29h-45q-514 0 -514 286v594q0 79 78 79t91 -7q42 -15 42 -72v-594q0 -109 303 -109h315q297 0 297 106v597q0 57 43 72q13 7 92 7t79 -79v-594zM898 1051q0 -56 -67 -56q-22 0 -45 14
q-21 15 -148 142q-63 63 -97 98.5t-39 45.5q-9 13 -9 24q0 25 23.5 42t50.5 17q21 0 34 -13l279 -276q18 -18 18 -38z" />
    <glyph glyph-name="uacute" unicode="&#xfa;" horiz-adv-x="1474" 
d="M1397 278q0 -289 -612 -289q-17 0 -44 0.5t-63 1.5q-1 1 -8 1h-9h-16h-29h-45q-514 0 -514 286v594q0 79 78 79t91 -7q42 -15 42 -72v-594q0 -109 303 -109h315q297 0 297 106v597q0 57 43 72q13 7 92 7t79 -79v-594zM968 1324q0 -21 -146 -167q-66 -66 -102 -101.5
t-44 -40.5q-23 -15 -46 -15q-67 0 -67 56q0 20 18 38l279 276q13 13 34 13q27 0 50.5 -17t23.5 -42z" />
    <glyph glyph-name="ucircumflex" unicode="&#xfb;" horiz-adv-x="1474" 
d="M1397 278q0 -289 -612 -289q-17 0 -44 0.5t-63 1.5q-1 1 -8 1h-9h-16h-29h-45q-514 0 -514 286v594q0 79 78 79t91 -7q42 -15 42 -72v-594q0 -109 303 -109h315q297 0 297 106v597q0 57 43 72q13 7 92 7t79 -79v-594zM1079 1050q0 -58 -69 -58q-35 0 -69 31
q-10 10 -24 23.5t-33 32.5q-15 14 -53 50t-101 94q-70 -72 -126 -124t-98 -87q-23 -18 -51 -18q-73 0 -73 58q0 17 16 33l266 267q29 29 66 29t66 -29l267 -267q16 -16 16 -35z" />
    <glyph glyph-name="udieresis" unicode="&#xfc;" horiz-adv-x="1474" 
d="M1397 278q0 -289 -612 -289q-17 0 -44 0.5t-63 1.5q-1 1 -8 1h-9h-16h-29h-45q-514 0 -514 286v594q0 79 78 79t91 -7q42 -15 42 -72v-594q0 -109 303 -109h315q297 0 297 106v597q0 57 43 72q13 7 92 7t79 -79v-594zM1024 1274q0 -21 -9 -37.5t-23.5 -28t-34 -18
t-40.5 -6.5q-41 0 -73 23q-34 25 -34 67t34 67q31 24 73 24q21 0 40.5 -6.5t34 -18.5t23.5 -28.5t9 -37.5zM676 1274q0 -40 -33 -65q-31 -25 -73 -25t-74 23q-34 25 -34 67t34 67q31 24 73 24q21 0 40.5 -6.5t34 -18.5t23.5 -28.5t9 -37.5z" />
    <glyph glyph-name="ydieresis" unicode="&#xff;" horiz-adv-x="1458" 
d="M1382 7q0 -195 -236 -255q-87 -25 -387 -25q-49 0 -66 29q-13 19 -13 74q0 79 79 79h27h17h10q10 0 11 -1q22 -1 37.5 -1.5t26.5 -0.5q282 0 282 94h-630q-476 0 -476 286v586q0 57 42 72q13 7 91 7t78 -79v-586q0 -110 265 -110h630v696q0 79 79 79q78 0 91 -7
q42 -15 42 -72v-865zM1041 1275q0 -21 -9 -37.5t-23.5 -28t-34 -18t-40.5 -6.5q-41 0 -73 23q-34 25 -34 67t34 67q31 24 73 24q21 0 40.5 -6.5t34 -18.5t23.5 -28.5t9 -37.5zM693 1275q0 -40 -33 -65q-31 -25 -73 -25t-74 23q-34 25 -34 67t34 67q31 24 73 24
q21 0 40.5 -6.5t34 -18.5t23.5 -28.5t9 -37.5z" />
    <glyph glyph-name="dotlessi" unicode="&#x131;" horiz-adv-x="377" 
d="M316 71q0 -79 -79 -79q-77 0 -90 7q-41 15 -41 72v725q0 78 79 78q76 0 89 -7q42 -15 42 -71v-725z" />
    <glyph glyph-name="OE" unicode="&#x152;" horiz-adv-x="1776" 
d="M1711 601q0 -97 -83 -97h-399v-200q0 -130 304 -130h60h8q11 0 12 1h15q78 0 78 -79q0 -104 -78 -104h-124q-252 0 -391 103q-139 -103 -473 -103q-229 0 -361 58q-202 82 -202 268v562q0 330 579 330q345 0 467 -99q94 70 244 89q38 5 103.5 7.5t159.5 2.5q48 0 65 -29
q12 -21 12 -73q0 -79 -77 -79q-19 0 -20 1l3 1q-1 1 -21 1q-365 0 -365 -132v-213h402q82 0 82 -86zM998 324v551q0 154 -359 154q-340 0 -340 -154v-551q0 -149 363 -149q336 0 336 149z" />
    <glyph glyph-name="oe" unicode="&#x153;" horiz-adv-x="1918" 
d="M1839 455q0 -87 -59 -87h-699v-7q0 -139 159 -178q31 -7 98.5 -10.5t173.5 -3.5q78 0 78 -98q0 -79 -78 -79h-95q-331 0 -444 95q-125 -95 -408 -95q-174 0 -315 59q-174 78 -174 239v353q0 161 173 244q127 64 315 64h42q258 0 374 -93q139 94 433 94q159 0 275 -54
q151 -70 151 -212v-231zM1633 551v118q0 108 -269 108q-48 0 -90.5 -5t-84.5 -15q-115 -30 -115 -96v-110h559zM860 290v369q0 114 -293 114q-96 0 -172 -24q-108 -35 -108 -106v-353q0 -121 314 -121q83 0 157 24q102 33 102 97z" />
    <glyph glyph-name="Ydieresis" unicode="&#x178;" horiz-adv-x="1542" 
d="M1503 1145q0 -35 -36 -69l-599 -575l-2 -430q-2 -59 -47 -72q-13 -7 -95 -7q-79 0 -79 78v431l-601 575q-34 33 -34 68q0 66 89 66q101 0 123 -22l533 -511l535 511q22 22 123 22q90 0 90 -65zM1059 1560q0 -21 -9 -37.5t-23.5 -28t-34 -18t-40.5 -6.5q-41 0 -73 23
q-34 25 -34 67t34 67q31 24 73 24q21 0 40.5 -6.5t34 -18.5t23.5 -28.5t9 -37.5zM711 1560q0 -40 -33 -65q-31 -25 -73 -25t-74 23q-34 25 -34 67t34 67q31 24 73 24q21 0 40.5 -6.5t34 -18.5t23.5 -28.5t9 -37.5z" />
    <glyph glyph-name="circumflex" unicode="&#x2c6;" horiz-adv-x="1188" 
d="M932 1028q0 -58 -69 -58q-35 0 -69 31q-10 10 -24 23.5t-33 32.5q-15 14 -53 50t-101 94q-70 -72 -126 -124t-98 -87q-23 -18 -51 -18q-73 0 -73 58q0 17 16 33l266 267q29 29 66 29t66 -29l267 -267q16 -16 16 -35z" />
    <glyph glyph-name="ring" unicode="&#x2da;" horiz-adv-x="1155" 
d="M808 1211q0 -79 -57 -128q-55 -49 -135 -49q-78 0 -133 49q-58 51 -58 128q0 78 57 128q54 48 134 48q78 0 134 -48q58 -51 58 -128zM738 1211q0 49 -36 81q-38 32 -86 32t-86 -32q-36 -32 -36 -81q0 -50 36 -81q38 -32 86 -32t86 32q36 31 36 81z" />
    <glyph glyph-name="tilde" unicode="&#x2dc;" horiz-adv-x="1138" 
d="M1015 1165q0 -48 -18 -60q-14 -8 -61 -8h-656q-58 0 -68 12q-11 14 -11 69q0 68 79 68h656q55 0 67 -13q12 -14 12 -68z" />
    <glyph glyph-name="quoteleft" unicode="&#x2018;" horiz-adv-x="372" 
d="M319 1223q0 -69 -80 -69q-82 0 -89 4q-46 10 -54 62l-47 289q-1 6 -1.5 11.5t-0.5 10.5q0 69 80 69t87 -4q47 -12 54 -61l49 -290q1 -6 1.5 -11.5t0.5 -10.5z" />
    <glyph glyph-name="quoteright" unicode="&#x2019;" horiz-adv-x="343" 
d="M296 1537q0 -5 -0.5 -10.5t-1.5 -11.5l-49 -290q-8 -50 -53 -61q-7 -4 -88 -4q-80 0 -80 69q0 5 0.5 10.5t1.5 11.5l47 289q9 50 54 62q7 4 89 4q80 0 80 -69z" />
    <glyph glyph-name="quotedblleft" unicode="&#x201c;" horiz-adv-x="627" 
d="M301 1227q0 -69 -80 -69q-35 0 -57 1.5t-32 3.5q-47 12 -54 61l-47 289q-1 6 -1.5 11.5t-0.5 10.5q0 69 80 69q81 0 88 -4q45 -11 53 -61l49 -290q1 -6 1.5 -11.5t0.5 -10.5zM583 1227q0 -69 -80 -69q-35 0 -57 1.5t-32 3.5q-47 12 -54 61l-47 289q-1 6 -1.5 11.5
t-0.5 10.5q0 69 80 69q81 0 88 -4q45 -11 53 -61l49 -290q1 -6 1.5 -11.5t0.5 -10.5z" />
    <glyph glyph-name="quotedblright" unicode="&#x201d;" horiz-adv-x="633" 
d="M582 1531q0 -5 -0.5 -10.5t-1.5 -11.5l-49 -290q-8 -50 -53 -61q-7 -4 -88 -4q-80 0 -80 69q0 5 0.5 10.5t1.5 11.5l47 289q9 50 54 62q7 4 89 4q80 0 80 -69zM300 1531q0 -5 -0.5 -10.5t-1.5 -11.5l-49 -290q-8 -50 -53 -61q-7 -4 -88 -4q-80 0 -80 69q0 5 0.5 10.5
t1.5 11.5l47 289q9 50 54 62q7 4 89 4q80 0 80 -69z" />
    <glyph glyph-name="bullet" unicode="&#x2022;" 
d="M1163 290q0 -64 -102 -97q-74 -24 -157 -24h-343q-98 0 -171 21q-110 32 -110 100v353q0 71 108 106q76 24 172 24h343q260 0 260 -114v-369z" />
    <glyph glyph-name="ogonek" unicode="&#x2db;" horiz-adv-x="397" 
d="M77 -62q0 78 102 78q85 0 103 -48q2 -22 3.5 -44t3.5 -45q12 -49 59 -49h100q78 0 78 -89q0 -92 -78 -92h-180q-191 0 -191 244v45z" />
    <glyph glyph-name="caron" unicode="&#x2c7;" horiz-adv-x="1188" 
d="M234 1300q0 58 69 58q35 0 69 -31q10 -10 24 -23.5t33 -32.5q15 -14 53 -50t101 -94q70 72 126 124t98 87q22 18 51 18q73 0 73 -58q0 -17 -16 -33l-266 -267q-29 -29 -66 -29t-66 29l-267 267q-16 16 -16 35z" />
    <glyph glyph-name="dagger" unicode="&#x2020;" horiz-adv-x="731" 
d="M446 785l-24 -720q-3 -74 -83 -74q-82 0 -82 74l-27 720h-158q-73 0 -73 70q0 68 73 68h146v194q0 100 122 100q120 0 120 -100v-194h152q68 0 68 -69t-68 -69h-166z" />
    <glyph glyph-name="daggerdbl" unicode="&#x2021;" horiz-adv-x="759" 
d="M249 372l24 209l-26 204h-162q-72 0 -72 70q0 68 72 68h146v194q0 100 123 100q119 0 119 -100v-194h152q69 0 69 -69t-69 -69h-166l-25 -204l25 -209h162q73 0 73 -70q0 -69 -73 -69h-146v-193q0 -100 -123 -100q-119 0 -119 100v193h-152q-68 0 -68 70q0 69 68 69h168z
" />
    <glyph glyph-name="ellipsis" unicode="&#x2026;" horiz-adv-x="1964" 
d="M1079 93q0 -92 -117 -92q-116 0 -116 92q0 88 116 88q117 0 117 -88zM1756 93q0 -92 -117 -92q-116 0 -116 92q0 88 116 88q117 0 117 -88zM390 93q0 -92 -117 -92q-116 0 -116 92q0 88 116 88q117 0 117 -88z" />
    <glyph glyph-name="copyright" unicode="&#xa9;" horiz-adv-x="1333" 
d="M605 935q-98 0 -98 -81v-208q0 -82 99 -82h220q40 0 40 -45q0 -48 -40 -48h-230q-174 0 -174 173v214q0 170 176 170h229q40 0 40 -45q0 -48 -40 -48h-222zM1136 759q0 195 -135 341q-135 142 -324 142t-325 -142q-133 -139 -133 -341q0 -204 133 -343q136 -142 325 -142
t324 142t135 343zM1230 759q0 -240 -162 -412q-164 -167 -391 -167t-388 167q-160 172 -160 412q0 238 160 407q160 172 388 172t391 -172q162 -170 162 -407z" />
    <glyph glyph-name="sterling" unicode="&#xa3;" horiz-adv-x="1479" 
d="M326 527v-383h1055q69 0 69 -70q0 -75 -69 -75l-1144 1q-93 0 -93 82v824q0 303 473 303h162q71 0 71 -69q0 -76 -71 -76h-145q-308 0 -308 -156v-238h670q69 0 69 -69q0 -74 -69 -74h-670z" />
    <glyph glyph-name="currency" unicode="&#xa4;" horiz-adv-x="1596" 
d="M398 680v-172h599q62 0 62 -68q0 -64 -62 -64h-599v-69q0 -162 331 -162h739q67 0 67 -72q0 -73 -67 -73h-763q-486 0 -486 303v73h-49q-64 0 -64 67q0 65 64 65h49v172h-49q-64 0 -64 70q0 63 64 63h49v111q0 285 475 285h720q65 0 65 -72q0 -73 -65 -73h-714
q-302 0 -302 -140v-111h771q69 0 69 -68q0 -65 -69 -65h-771z" />
    <glyph glyph-name="section" unicode="&#xa7;" horiz-adv-x="1178" 
d="M431 743q-166 0 -166 -87v-65q0 -96 195 -96h285q151 0 151 88v61q0 99 -170 99h-295zM1071 583q0 -111 -120 -163q120 -59 120 -166q0 -254 -355 -254h-555q-73 0 -73 68q0 70 73 70h584q151 0 151 116q0 100 -165 100h-242q-389 0 -389 235v68q0 104 119 158
q-119 57 -119 167q0 226 371 226h41q76 0 76 -72q0 -68 -76 -68h-81q-166 0 -166 -86q0 -98 189 -99h251q366 0 366 -239v-61z" />
    <glyph glyph-name="breve" unicode="&#x2d8;" horiz-adv-x="851" 
d="M93 1308q-16 16 -16 36q0 23 21 43q22 21 44 21q27 0 39 -20q124 -169 219 -169q51 0 101.5 41.5t111.5 126.5q7 12 19 16.5t22 4.5q12 0 23.5 -5.5t20.5 -15t14.5 -21t5.5 -23.5t-3 -19.5t-7 -13.5q-86 -104 -159 -158t-149 -54q-73 0 -147.5 50.5t-159.5 159.5z" />
    <glyph glyph-name="hungarumlaut" unicode="&#x2dd;" horiz-adv-x="833" 
d="M158 1068q-18 -20 -44 -20q-55 0 -55 57q0 24 17 41l255 272q20 20 47 20q57 0 57 -55q0 -25 -16 -44zM450 1066q-15 -18 -42 -18q-57 0 -57 57q0 24 17 41l256 272q23 20 48 20q56 0 56 -55q0 -25 -16 -44z" />
    <glyph glyph-name="guillemotright" unicode="&#xbb;" horiz-adv-x="1201" 
d="M708 194q-27 -18 -50 -18q-17 0 -31 7t-24.5 18t-16.5 26t-6 30q0 38 36 65l280 211l-280 208q-21 13 -29 31t-8 35q0 16 6 31t17 27t25 19t31 7q12 0 25.5 -4t24.5 -13l355 -277q34 -25 34 -65t-36 -64zM229 194q-26 -18 -48 -18q-17 0 -31 7t-25 18t-17 26t-6 30
q0 38 35 65l282 211l-282 208q-20 13 -28 31t-8 35q0 16 6.5 31t17 27t25 19t31.5 7q12 0 25 -4t23 -13l356 -277q35 -26 35 -65q0 -40 -36 -64z" />
    <glyph glyph-name="guillemotleft" unicode="&#xab;" horiz-adv-x="1152" 
d="M436 871q25 19 48 19q16 0 30.5 -7t25.5 -19t17 -27t6 -30q0 -36 -35 -65l-282 -211l282 -206q20 -14 28 -32t8 -36q0 -15 -6.5 -30t-17 -27t-25.5 -19t-31 -7q-12 0 -25 4t-23 14l-356 276q-35 27 -35 64q0 41 36 65zM914 871q25 19 48 19q16 0 30.5 -7t25.5 -19t17 -27
t6 -30q0 -37 -36 -65l-281 -211l281 -206q20 -14 29 -32t9 -36q0 -15 -6.5 -30t-17.5 -27t-26 -19t-31 -7q-11 0 -25 4t-23 14l-355 276q-35 27 -35 64q0 41 35 65z" />
    <glyph glyph-name="mu" unicode="&#xb5;" horiz-adv-x="1490" 
d="M162 866q0 72 84 72q83 0 83 -72v-728h649q240 0 240 129v599q0 72 84 72t84 -72v-599q0 -267 -439 -267h-618v-184q0 -79 -84 -79q-83 0 -83 79v1050z" />
    <glyph glyph-name="endash" unicode="&#x2013;" horiz-adv-x="1310" 
d="M226 438q-68 0 -68 63q0 67 68 67h811q62 0 62 -64q0 -66 -62 -66h-811z" />
    <glyph glyph-name="emdash" unicode="&#x2014;" horiz-adv-x="1588" 
d="M227 438q-67 0 -67 63q0 67 67 67h1088q62 0 62 -64q0 -66 -62 -66h-1088z" />
    <glyph glyph-name="ordfeminine" unicode="&#xaa;" horiz-adv-x="1144" 
d="M797 912h-483q-109 0 -109 -57v-108q0 -54 113 -54h370q109 0 109 93v126zM943 767q0 -194 -274 -194h-318q-286 0 -286 189v77q0 180 282 180h448q1 84 -110 84h-130q-60 0 -60 54q0 52 60 52h114q274 0 274 -198v-244z" />
    <glyph glyph-name="dotaccent" unicode="&#x2d9;" horiz-adv-x="630" 
d="M560 1219q0 -40 -33 -65q-31 -25 -73 -25t-74 23q-34 25 -34 67t34 67q31 24 73 24q21 0 40.5 -6.5t34 -18.5t23.5 -28.5t9 -37.5z" />
    <glyph glyph-name="macron" unicode="&#xaf;" horiz-adv-x="1138" 
d="M1015 1165q0 -48 -18 -60q-14 -8 -61 -8h-656q-58 0 -68 12q-11 14 -11 69q0 68 79 68h656q55 0 67 -13q12 -14 12 -68z" />
    <glyph glyph-name="macron" unicode="&#x2c9;" horiz-adv-x="1138" 
d="M1015 1165q0 -48 -18 -60q-14 -8 -61 -8h-656q-58 0 -68 12q-11 14 -11 69q0 68 79 68h656q55 0 67 -13q12 -14 12 -68z" />
    <glyph glyph-name="trademark" unicode="&#x2122;" horiz-adv-x="1512" 
d="M1440 741q0 -50 -51 -66q-5 -1 -8.5 -1.5t-5.5 -0.5h-29q-68 0 -68 68v188l-180 -221q-30 -37 -82 -37t-83 37l-185 226v-193q0 -68 -68 -68q-19 0 -30 0.5t-16 2.5q-48 16 -48 65v325h-174v-325q0 -35 -16 -51.5t-51 -16.5q-20 0 -30 0.5t-15 2.5q-26 8 -37 23.5
t-11 41.5v325h-147q-68 0 -68 67q0 31 10 47q15 31 58 31l567 -1q48 0 78 -36l266 -315l260 316q16 17 34.5 26t42.5 9q87 0 87 -85v-384z" />
    <glyph glyph-name="guilsinglleft" unicode="&#x2039;" horiz-adv-x="567" 
d="M426 871q25 19 48 19q16 0 30.5 -7t25.5 -19t17 -27t6 -30q0 -37 -36 -65l-281 -211l281 -206q20 -14 29 -32t9 -36q0 -15 -6.5 -30t-17.5 -27t-26 -19t-31 -7q-11 0 -25 4t-23 14l-355 276q-35 27 -35 64q0 41 35 65z" />
    <glyph glyph-name="guilsinglright" unicode="&#x203a;" horiz-adv-x="655" 
d="M174 193q-25 -19 -48 -19q-17 0 -31 7t-25 19t-17 27t-6 30q0 36 36 65l281 211l-281 206q-20 14 -29 32t-9 36q0 15 6.5 30t17.5 27t25.5 19t31.5 7q11 0 25 -4t23 -14l355 -276q35 -27 35 -64q0 -41 -35 -65z" />
    <glyph glyph-name="quotesinglbase" unicode="&#x201a;" horiz-adv-x="387" 
d="M329 223q0 -5 -0.5 -11t-1.5 -12l-48 -290q-7 -49 -54 -61q-11 -2 -33 -3.5t-55 -1.5q-79 0 -79 69q0 5 0.5 10t1.5 12l46 291q7 47 54 61q10 2 32 3.5t57 1.5q80 0 80 -69z" />
    <glyph glyph-name="quotedblbase" unicode="&#x201e;" horiz-adv-x="707" 
d="M629 223q0 -5 -0.5 -11t-1.5 -12l-48 -290q-7 -49 -54 -61q-11 -2 -33 -3.5t-55 -1.5q-79 0 -79 69q0 5 0.5 10t1.5 12l46 291q7 47 54 61q10 2 32 3.5t57 1.5q80 0 80 -69zM329 223q0 -5 -0.5 -11t-1.5 -12l-48 -290q-7 -49 -54 -61q-11 -2 -33 -3.5t-55 -1.5
q-79 0 -79 69q0 5 0.5 10t1.5 12l46 291q7 47 54 61q10 2 32 3.5t57 1.5q80 0 80 -69z" />
    <glyph glyph-name="quotedbl" unicode="&#x22;" horiz-adv-x="679" 
d="M616 1127q0 -5 -0.5 -10.5t-1.5 -11.5l-49 -290q-8 -50 -53 -61q-7 -4 -88 -4q-80 0 -80 69q0 5 0.5 10.5t1.5 11.5l47 289q9 50 54 62q7 4 89 4q80 0 80 -69zM334 1127q0 -5 -0.5 -10.5t-1.5 -11.5l-49 -290q-8 -50 -53 -61q-7 -4 -88 -4q-80 0 -80 69q0 5 0.5 10.5
t1.5 11.5l47 289q9 50 54 62q7 4 89 4q80 0 80 -69z" />
    <glyph glyph-name="exclam" unicode="!" horiz-adv-x="403" 
d="M313 314q0 -58 -47 -72q-20 -6 -96 -6q-79 0 -79 78v825q0 79 79 79q76 0 96 -6q47 -14 47 -73v-825zM339 102q0 -53 -44 -83q-38 -26 -94 -26q-137 0 -137 109q0 52 44 81q41 26 93 26t93 -26q45 -30 45 -81z" />
    <glyph glyph-name="brokenbar" unicode="&#xa6;" horiz-adv-x="260" 
d="M179 680h-83v742h83v-742zM179 -442h-83v742h83v-742z" />
    <glyph glyph-name="Eth" unicode="&#xd0;" horiz-adv-x="1743" 
d="M156 688v444q0 78 78 78h945q495 0 495 -310v-579q0 -172 -173 -261q-134 -68 -327 -68h-940q-78 0 -78 79v449h-136q-44 0 -53 25q-3 9 -3 65q0 78 56 78h136zM543 597q0 -77 -56 -77h-109v-345h791q101 0 178 27q107 38 107 120v577q0 72 -109 106q-77 24 -172 24h-795
v-341h109q44 0 53 -26q3 -8 3 -65z" />
    <glyph glyph-name="Yacute" unicode="&#xdd;" horiz-adv-x="1487" 
d="M1493 1145q0 -35 -36 -69l-599 -575l-2 -430q-2 -59 -47 -72q-13 -7 -95 -7q-79 0 -79 78v431l-601 575q-34 33 -34 68q0 66 89 66q101 0 123 -22l533 -511l535 511q22 22 123 22q90 0 90 -65zM1011 1600q0 -21 -146 -167q-66 -66 -102 -101.5t-44 -40.5q-23 -15 -46 -15
q-67 0 -67 56q0 20 18 38l279 276q13 13 34 13q27 0 50.5 -17t23.5 -42z" />
    <glyph glyph-name="yacute" unicode="&#xfd;" horiz-adv-x="1463" 
d="M1382 7q0 -195 -236 -255q-87 -25 -387 -25q-49 0 -66 29q-13 19 -13 74q0 79 79 79h27h17h10q10 0 11 -1q22 -1 37.5 -1.5t26.5 -0.5q282 0 282 94h-630q-476 0 -476 286v586q0 57 42 72q13 7 91 7t78 -79v-586q0 -110 265 -110h630v696q0 79 79 79q78 0 91 -7
q42 -15 42 -72v-865zM1021 1314q0 -21 -146 -167q-66 -66 -102 -101.5t-44 -40.5q-23 -15 -46 -15q-67 0 -67 56q0 20 18 38l279 276q13 13 34 13q27 0 50.5 -17t23.5 -42z" />
    <glyph glyph-name="eth" unicode="&#xf0;" horiz-adv-x="1504" 
d="M1425 287q0 -154 -191 -234q-135 -61 -325 -61h-322q-489 0 -505 271q-3 48 -3 126q0 157 6 256q18 298 499 298h630v101h-180q-79 0 -79 91q0 78 79 78h259q132 0 132 -83v-843zM1214 291v475h-635q-283 0 -283 -125v-340q0 -93 107 -120q46 -12 181 -12h304
q326 0 326 122z" />
    <glyph glyph-name="Thorn" unicode="&#xde;" horiz-adv-x="1600" 
d="M1558 570q0 -183 -182 -264q-141 -59 -340 -59h-771v-176q-1 -79 -114 -79q-108 0 -109 79v1061q0 59 47 73q11 2 35 3.5t62 1.5q78 0 78 -78v-102h782q188 0 319 -52q193 -72 193 -219v-189zM1338 577v166q0 106 -290 106h-783v-420h784q289 0 289 148z" />
    <glyph glyph-name="thorn" unicode="&#xfe;" horiz-adv-x="1460" 
d="M1392 297q0 -297 -456 -297h-658v-195q0 -56 -43 -71q-13 -7 -90 -7q-78 0 -78 78l1 1327q0 78 78 78q73 0 91 -6q42 -14 42 -72v-209q93 28 270 28h336q507 0 507 -282v-372zM1179 294v372q0 76 -117 99q-47 9 -175 9h-329q-263 0 -279 -100v-498h657q243 0 243 118z
" />
    <glyph glyph-name="Euro" unicode="&#x20ac;" horiz-adv-x="1596" 
d="M398 680v-172h599q62 0 62 -68q0 -64 -62 -64h-599v-69q0 -162 331 -162h739q67 0 67 -72q0 -73 -67 -73h-763q-486 0 -486 303v73h-49q-64 0 -64 67q0 65 64 65h49v172h-49q-64 0 -64 70q0 63 64 63h49v111q0 285 475 285h720q65 0 65 -72q0 -73 -65 -73h-714
q-302 0 -302 -140v-111h771q69 0 69 -68q0 -65 -69 -65h-771z" />
    <glyph glyph-name="onequarter" unicode="&#xbc;" horiz-adv-x="2657" 
d="M322 388q0 -77 -89 -77q-88 0 -88 77v748q0 77 89 77q88 0 88 -77v-748zM465 -1q-26 -24 -54 -24q-79 0 -79 82q0 33 24 57l1056 1090q29 26 66 26q87 0 87 -80q0 -33 -29 -62zM2508 61q0 -77 -89 -77q-88 0 -88 77v149h-750q-48 0 -69 22t-21 73v504q0 77 86 77
q87 0 87 -77v-427h667v427q0 77 88 77q89 0 89 -77v-748z" />
    <glyph glyph-name="onehalf" unicode="&#xbd;" horiz-adv-x="2351" 
d="M322 388q0 -77 -89 -77q-88 0 -88 77v748q0 77 89 77q88 0 88 -77v-748zM439 -1q-27 -24 -55 -24q-78 0 -78 82q0 33 24 57l1056 1090q26 26 65 26q88 0 88 -80q0 -33 -29 -62zM2236 602q0 -236 -327 -236h-281q-174 0 -174 -71v-143h710q72 0 72 -76t-72 -76h-819
q-67 0 -67 68v226q0 225 374 225h271q135 0 135 68v87q0 67 -124 67h-212q-77 0 -77 77q0 74 77 74h196q318 0 318 -235v-55z" />
    <glyph glyph-name="threequarters" unicode="&#xbe;" horiz-adv-x="3240" 
d="M1039 -1q-27 -24 -55 -24q-78 0 -78 82q0 33 24 57l1056 1090q26 26 65 26q88 0 88 -80q0 -34 -30 -62zM3078 64q0 -79 -89 -79q-88 0 -88 79v149h-750q-48 0 -69.5 21.5t-21.5 72.5v504q0 77 87 77q86 0 86 -77v-427h668v427q0 77 88 77q89 0 89 -77v-747zM1016 939
q0 -107 -105 -162q105 -56 105 -172v-48q0 -240 -364 -240h-527q-80 0 -80 74q0 77 80 77h549q165 0 165 83v82q0 24 -38 44l2 -1q-68 17 -123 17h-555q-80 0 -80 77q0 79 80 79h555q30 0 58 5t52 10h-1q50 20 50 50v81q0 62 -162 62h-161q-80 0 -80 76t80 76h128
q372 0 372 -221v-49z" />
    <glyph glyph-name="twosuperior" unicode="&#xb2;" horiz-adv-x="1177" 
d="M1015 919q0 -238 -327 -238h-280q-175 0 -175 -69v-144h711q71 0 71 -77q0 -74 -71 -74h-819q-68 0 -68 66v227q0 224 375 224h272q133 0 133 68v88q0 67 -124 67h-212q-77 0 -77 76t77 76h196q318 0 318 -235v-55z" />
    <glyph glyph-name="threesuperior" unicode="&#xb3;" horiz-adv-x="1220" 
d="M1024 939q0 -108 -118 -162q118 -55 118 -172v-48q0 -240 -364 -240h-527q-80 0 -80 74q0 77 80 77h548q166 0 166 83v82q0 24 -38 44l2 -1q-68 17 -125 17h-553q-80 0 -80 77q0 79 80 79h553q32 0 59.5 5t52.5 10h-1q50 20 50 50v81q0 62 -163 62h-160q-81 0 -81 76
t81 76h126q374 0 374 -221v-49z" />
    <glyph glyph-name="aogonek" unicode="&#x105;" horiz-adv-x="1539" 
d="M1469 280q0 -288 -432 -288h-516q-166 0 -287 61q-163 78 -163 217v122q0 150 155 225q115 58 288 58h746q-17 101 -286 101q-11 0 -26.5 -0.5t-35.5 -1.5q-1 -1 -10 -1h-9h-16h-25q-78 0 -78 99q0 79 78 79q253 0 387 -35q230 -65 230 -260v-376zM1262 330q0 14 -0.5 35
t-1.5 49t-1.5 49t-0.5 35h-749q-66 0 -136 -24q-91 -31 -91 -81v-121q0 -53 94 -81q60 -22 139 -22h524q118 0 162 23q61 31 61 138zM545 -62q0 78 102 78q85 0 103 -48q2 -22 3.5 -44t3.5 -45q12 -49 59 -49h100q78 0 78 -89q0 -92 -78 -92h-180q-191 0 -191 244v45z" />
    <glyph glyph-name="Aogonek" unicode="&#x104;" horiz-adv-x="1772" 
d="M1746 75q0 -46 -31 -77t-77 -31q-64 0 -104 60l-197 286h-936l-197 -286q-32 -47 -69 -47t-71 24q-38 26 -38 61q0 11 6 20l702 1073q43 66 148 66q78 0 104 -44q2 -3 4.5 -8.5t7.5 -13.5l744 -1053q4 -7 4 -30zM1207 497l-337 497l-339 -497h676zM661 -62q0 78 102 78
q85 0 103 -48q2 -22 3.5 -44t3.5 -45q12 -49 59 -49h100q78 0 78 -89q0 -92 -78 -92h-180q-191 0 -191 244v45z" />
    <glyph glyph-name="eogonek" unicode="&#x119;" horiz-adv-x="1410" 
d="M1368 455q0 -87 -59 -87h-1049v-7q0 -136 160 -175q35 -8 101.5 -12.5t169.5 -4.5q78 0 78 -98q0 -79 -78 -79q-106 0 -173.5 1.5t-102.5 5.5q-174 18 -256 82q-117 91 -117 214v353q0 166 180 246q123 58 326 58h394q166 0 275 -55q151 -70 151 -211v-231zM1162 551v118
q0 108 -429 108q-253 0 -347 -18q-133 -25 -133 -98v-110h909zM518 -62q0 78 102 78q85 0 103 -48q2 -22 3.5 -44t3.5 -45q12 -49 59 -49h100q78 0 78 -89q0 -92 -78 -92h-180q-191 0 -191 244v45z" />
    <glyph glyph-name="Eogonek" unicode="&#x118;" horiz-adv-x="1459" 
d="M1417 601q0 -97 -83 -97h-1069v-200q0 -129 285 -129h784q78 0 78 -79q0 -104 -78 -104h-794q-174 0 -319 62q-178 81 -178 242v604q0 87 59 158q128 152 457 152h217q77 0 77 -102q0 -79 -77 -79h-32h-20h-11q-11 0 -12 1q-25 1 -43 1.5t-30 0.5q-365 0 -365 -132v-213
h1072q82 0 82 -86zM505 -62q0 78 102 78q85 0 103 -48q2 -22 3.5 -44t3.5 -45q12 -49 59 -49h100q78 0 78 -89q0 -92 -78 -92h-180q-191 0 -191 244v45z" />
    <glyph glyph-name="nacute" unicode="&#x144;" horiz-adv-x="1455" 
d="M1381 71q0 -79 -79 -79q-78 0 -91 7q-43 15 -43 72v610q0 65 -108 85q-19 4 -58.5 5.5t-99.5 1.5h-364q-55 0 -92.5 -2t-59.5 -6q-102 -20 -102 -85v-609q0 -79 -78 -79t-91 7q-42 15 -42 72v607q0 273 484 273h345q479 0 479 -271v-609zM930 1302q0 -21 -146 -167
q-66 -66 -102 -101.5t-44 -40.5q-23 -15 -46 -15q-67 0 -67 56q0 20 18 38l279 276q13 13 34 13q27 0 50.5 -17t23.5 -42z" />
    <glyph glyph-name="Nacute" unicode="&#x143;" horiz-adv-x="1671" 
d="M1590 123q0 -139 -122 -139q-56 0 -127 59l-1037 881v-853q0 -59 -48 -74q-14 -2 -38 -3.5t-58 -1.5q-78 0 -78 79v1016q0 132 114 132q72 0 148 -64l1023 -871v848q0 58 48 73q14 2 38 3.5t58 1.5q79 0 79 -78v-1009zM1038 1557q0 -21 -146 -167q-66 -66 -102 -101.5
t-44 -40.5q-23 -15 -46 -15q-67 0 -67 56q0 20 18 38l279 276q13 13 34 13q27 0 50.5 -17t23.5 -42z" />
    <glyph glyph-name="Sacute" unicode="&#x15a;" horiz-adv-x="1462" 
d="M1422 294q0 -98 -31 -153q-83 -149 -502 -149h-769q-77 0 -77 79q0 54 12 75q17 29 65 29h769q311 0 311 115v105q0 112 -301 122l-369 12q-26 1 -73.5 3.5t-116.5 7.5q-120 14 -206 79q-94 72 -94 189v92q0 213 236 281q113 29 414 29q78 0 78 -102q0 -59 -47 -74
q-7 -4 -95 -4q-364 0 -364 -128v-85q0 -79 136 -103q26 -5 75.5 -7.5t121.5 -2.5h297q213 0 336 -55q194 -80 194 -246v-109zM776 1557q0 -21 -146 -167q-66 -66 -102 -101.5t-44 -40.5q-23 -15 -46 -15q-67 0 -67 56q0 20 18 38l279 276q13 13 34 13q27 0 50.5 -17
t23.5 -42z" />
    <glyph glyph-name="sacute" unicode="&#x15b;" horiz-adv-x="1300" 
d="M1258 266q0 -274 -418 -274h-714q-78 0 -78 79q0 98 78 98h715q198 0 198 97v36q0 87 -180 87h-343q-473 0 -473 264v52q0 175 238 224q48 11 140.5 16.5t232.5 5.5q79 0 79 -100q0 -78 -79 -78h-152q-119 0 -143 -3q-105 -14 -105 -65v-50q0 -86 263 -86h350
q391 0 391 -259v-44zM716 1268q0 -21 -146 -167q-66 -66 -102 -101.5t-44 -40.5q-23 -15 -46 -15q-67 0 -67 56q0 20 18 38l279 276q13 13 34 13q27 0 50.5 -17t23.5 -42z" />
    <glyph glyph-name="Zacute" unicode="&#x179;" 
d="M1412 84q0 -92 -81 -92h-1113q-72 0 -121 27q-62 33 -62 98q0 42 35 72l1131 961q49 43 105 43q21 0 39.5 -6.5t33 -18.5t23 -28.5t8.5 -36.5q0 -47 -45 -84l-998 -844h964q81 0 81 -91zM925 1557q0 -21 -146 -167q-66 -66 -102 -101.5t-44 -40.5q-23 -15 -46 -15
q-67 0 -67 56q0 20 18 38l279 276q13 13 34 13q27 0 50.5 -17t23.5 -42z" />
    <glyph glyph-name="zacute" unicode="&#x17a;" horiz-adv-x="1415" 
d="M1376 81q0 -89 -82 -89h-1109q-53 0 -97 29q-48 34 -48 85t56 87l1083 700q41 26 78 26q42 0 68.5 -27.5t26.5 -69.5q0 -38 -28 -56l-911 -594l881 -3q82 0 82 -88zM910 1302q0 -21 -146 -167q-66 -66 -102 -101.5t-44 -40.5q-23 -15 -46 -15q-67 0 -67 56q0 20 18 38
l279 276q13 13 34 13q27 0 50.5 -17t23.5 -42z" />
    <glyph glyph-name="Lslash" unicode="&#x141;" horiz-adv-x="1495" 
d="M1425 71q0 -79 -78 -79h-712q-244 0 -381 44q-211 73 -211 277v819q0 78 78 78q75 0 96 -6q48 -14 48 -72v-819q0 -95 154 -125q49 -13 228 -13h700q78 0 78 -104zM462.467 853.103q0 -16.2266 -15.3184 -31.1016l-494.717 -478.24q-11.7148 -10.3662 -55.8701 -10.3662
q-40.0996 0 -40.0996 29.749q0 15.3252 15.7695 31.1006l494.266 478.24q9.91309 9.91699 56.3203 9.91699q39.6494 0 39.6494 -29.2988z" />
    <glyph glyph-name="lslash" unicode="&#x142;" horiz-adv-x="370" 
d="M291 71q0 -79 -78 -79q-77 0 -90 7q-43 16 -43 72v1061q0 78 78 78q73 0 91 -6q42 -14 42 -72v-1061zM505.982 866.357q0 -17.083 -16.1279 -32.7432l-520.853 -503.496q-12.334 -10.915 -58.8223 -10.915q-42.2178 0 -42.2178 31.3203q0 16.1348 16.6025 32.7441
l520.379 503.496q10.4355 10.4395 59.2949 10.4395q41.7441 0 41.7441 -30.8457z" />
    <glyph glyph-name="ccaron" unicode="&#x10d;" horiz-adv-x="1450" 
d="M1412 71q0 -79 -98 -79h-781q-225 0 -324 43q-170 68 -170 247v378q0 291 450 291h836q82 0 82 -89t-82 -89h-821q-254 0 -254 -107v-375q0 -122 289 -122h794q79 0 79 -98zM376 1300q0 58 69 58q35 0 69 -31q10 -10 24 -23.5t33 -32.5q15 -14 53 -50t101 -94
q70 72 126 124t98 87q22 18 51 18q73 0 73 -58q0 -17 -16 -33l-266 -267q-29 -29 -66 -29t-66 29l-267 267q-16 16 -16 35z" />
    <glyph glyph-name="Ccaron" unicode="&#x10c;" horiz-adv-x="1524" 
d="M1427 1108q0 -79 -78 -79h-791q-288 0 -288 -115v-603q0 -136 319 -136h755q81 0 81 -91q0 -92 -81 -92h-755q-153 0 -220 12q-73 14 -152 54q-90 47 -126 98q-43 58 -43 151v606q0 115 105 196q88 67 214 90q32 5 78 8t109 3h795q78 0 78 -102zM413 1555q0 58 69 58
q35 0 69 -31q10 -10 24 -23.5t33 -32.5q15 -14 53 -50t101 -94q70 72 126 124t98 87q22 18 51 18q73 0 73 -58q0 -17 -16 -33l-266 -267q-29 -29 -66 -29t-66 29l-267 267q-16 16 -16 35z" />
    <glyph glyph-name="Scaron" unicode="&#x160;" horiz-adv-x="1462" 
d="M1422 294q0 -98 -31 -153q-83 -149 -502 -149h-769q-77 0 -77 79q0 54 12 75q17 29 65 29h769q311 0 311 115v105q0 112 -301 122l-369 12q-26 1 -73.5 3.5t-116.5 7.5q-120 14 -206 79q-94 72 -94 189v92q0 213 236 281q113 29 414 29q78 0 78 -102q0 -59 -47 -74
q-7 -4 -95 -4q-364 0 -364 -128v-85q0 -79 136 -103q26 -5 75.5 -7.5t121.5 -2.5h297q213 0 336 -55q194 -80 194 -246v-109zM382 1555q0 58 69 58q35 0 69 -31q10 -10 24 -23.5t33 -32.5q15 -14 53 -50t101 -94q70 72 126 124t98 87q22 18 51 18q73 0 73 -58q0 -17 -16 -33
l-266 -267q-29 -29 -66 -29t-66 29l-267 267q-16 16 -16 35z" />
    <glyph glyph-name="scaron" unicode="&#x161;" horiz-adv-x="1300" 
d="M1258 266q0 -274 -418 -274h-714q-78 0 -78 79q0 98 78 98h715q198 0 198 97v36q0 87 -180 87h-343q-473 0 -473 264v52q0 175 238 224q48 11 140.5 16.5t232.5 5.5q79 0 79 -100q0 -78 -79 -78h-152q-119 0 -143 -3q-105 -14 -105 -65v-50q0 -86 263 -86h350
q391 0 391 -259v-44zM301 1300q0 58 69 58q35 0 69 -31q10 -10 24 -23.5t33 -32.5q15 -14 53 -50t101 -94q70 72 126 124t98 87q22 18 51 18q73 0 73 -58q0 -17 -16 -33l-266 -267q-29 -29 -66 -29t-66 29l-267 267q-16 16 -16 35z" />
    <glyph glyph-name="Cacute" unicode="&#x106;" horiz-adv-x="1524" 
d="M1427 1108q0 -79 -78 -79h-791q-288 0 -288 -115v-603q0 -136 319 -136h755q81 0 81 -91q0 -92 -81 -92h-755q-153 0 -220 12q-73 14 -152 54q-90 47 -126 98q-43 58 -43 151v606q0 115 105 196q88 67 214 90q32 5 78 8t109 3h795q78 0 78 -102zM964 1557
q0 -21 -146 -167q-66 -66 -102 -101.5t-44 -40.5q-23 -15 -46 -15q-67 0 -67 56q0 20 18 38l279 276q13 13 34 13q27 0 50.5 -17t23.5 -42z" />
    <glyph glyph-name="cacute" unicode="&#x107;" horiz-adv-x="1450" 
d="M1412 71q0 -79 -98 -79h-781q-225 0 -324 43q-170 68 -170 247v378q0 291 450 291h836q82 0 82 -89t-82 -89h-821q-254 0 -254 -107v-375q0 -122 289 -122h794q79 0 79 -98zM927 1302q0 -21 -146 -167q-66 -66 -102 -101.5t-44 -40.5q-23 -15 -46 -15q-67 0 -67 56
q0 20 18 38l279 276q13 13 34 13q27 0 50.5 -17t23.5 -42z" />
    <glyph glyph-name="Zcaron" unicode="&#x17d;" 
d="M1412 84q0 -92 -81 -92h-1113q-72 0 -121 27q-62 33 -62 98q0 42 35 72l1131 961q49 43 105 43q21 0 39.5 -6.5t33 -18.5t23 -28.5t8.5 -36.5q0 -47 -45 -84l-998 -844h964q81 0 81 -91zM614 1555q0 58 69 58q35 0 69 -31q10 -10 24 -23.5t33 -32.5q15 -14 53 -50
t101 -94q70 72 126 124t98 87q22 18 51 18q73 0 73 -58q0 -17 -16 -33l-266 -267q-29 -29 -66 -29t-66 29l-267 267q-16 16 -16 35z" />
    <glyph glyph-name="zcaron" unicode="&#x17e;" horiz-adv-x="1415" 
d="M1376 81q0 -89 -82 -89h-1109q-53 0 -97 29q-48 34 -48 85t56 87l1083 700q41 26 78 26q42 0 68.5 -27.5t26.5 -69.5q0 -38 -28 -56l-911 -594l881 -3q82 0 82 -88zM561 1300q0 58 69 58q35 0 69 -31q10 -10 24 -23.5t33 -32.5q15 -14 53 -50t101 -94q70 72 126 124
t98 87q22 18 51 18q73 0 73 -58q0 -17 -16 -33l-266 -267q-29 -29 -66 -29t-66 29l-267 267q-16 16 -16 35z" />
    <glyph glyph-name="Tcaron" unicode="&#x164;" horiz-adv-x="1390" 
d="M1375 1108q0 -79 -78 -79h-493v-958q0 -79 -77 -79q-78 0 -97 6q-47 14 -47 73v958h-489q-79 0 -79 79q0 54 12 74q16 28 67 28h1203q78 0 78 -102zM346 1555q0 58 69 58q35 0 69 -31q10 -10 24 -23.5t33 -32.5q15 -14 53 -50t101 -94q70 72 126 124t98 87q22 18 51 18
q73 0 73 -58q0 -17 -16 -33l-266 -267q-29 -29 -66 -29t-66 29l-267 267q-16 16 -16 35z" />
    <glyph glyph-name="Zdotaccent" unicode="&#x17b;" 
d="M1412 84q0 -92 -81 -92h-1113q-72 0 -121 27q-62 33 -62 98q0 42 35 72l1131 961q49 43 105 43q21 0 39.5 -6.5t33 -18.5t23 -28.5t8.5 -36.5q0 -47 -45 -84l-998 -844h964q81 0 81 -91zM830 1474q0 -40 -33 -65q-31 -25 -73 -25t-74 23q-34 25 -34 67t34 67q31 24 73 24
q21 0 40.5 -6.5t34 -18.5t23.5 -28.5t9 -37.5z" />
    <glyph glyph-name="zdotaccent" unicode="&#x17c;" horiz-adv-x="1415" 
d="M1376 81q0 -89 -82 -89h-1109q-53 0 -97 29q-48 34 -48 85t56 87l1083 700q41 26 78 26q42 0 68.5 -27.5t26.5 -69.5q0 -38 -28 -56l-911 -594l881 -3q82 0 82 -88zM814 1219q0 -40 -33 -65q-31 -25 -73 -25t-74 23q-34 25 -34 67t34 67q31 24 73 24q21 0 40.5 -6.5
t34 -18.5t23.5 -28.5t9 -37.5z" />
    <glyph glyph-name="Scedilla" unicode="&#x15e;" horiz-adv-x="1462" 
d="M1422 294q0 -98 -31 -153q-83 -149 -502 -149h-769q-77 0 -77 79q0 54 12 75q17 29 65 29h769q311 0 311 115v105q0 112 -301 122l-369 12q-26 1 -73.5 3.5t-116.5 7.5q-120 14 -206 79q-94 72 -94 189v92q0 213 236 281q113 29 414 29q78 0 78 -102q0 -59 -47 -74
q-7 -4 -95 -4q-364 0 -364 -128v-85q0 -79 136 -103q26 -5 75.5 -7.5t121.5 -2.5h297q213 0 336 -55q194 -80 194 -246v-109zM955 -107q0 -244 -191 -244h-180q-78 0 -78 92q0 89 78 89h100q47 0 59 49q2 23 3.5 45t3.5 44q18 48 103 48q102 0 102 -78v-45z" />
    <glyph glyph-name="scedilla" unicode="&#x15f;" horiz-adv-x="1300" 
d="M1258 266q0 -274 -418 -274h-714q-78 0 -78 79q0 98 78 98h715q198 0 198 97v36q0 87 -180 87h-343q-473 0 -473 264v52q0 175 238 224q48 11 140.5 16.5t232.5 5.5q79 0 79 -100q0 -78 -79 -78h-152q-119 0 -143 -3q-105 -14 -105 -65v-50q0 -86 263 -86h350
q391 0 391 -259v-44zM874 -107q0 -244 -191 -244h-180q-78 0 -78 92q0 89 78 89h100q47 0 59 49q2 23 3.5 45t3.5 44q18 48 103 48q102 0 102 -78v-45z" />
    <glyph glyph-name="Racute" unicode="&#x154;" horiz-adv-x="1632" 
d="M1568 755q0 -165 -174 -241q-138 -56 -318 -56h-366l742 -315q59 -26 59 -77q0 -75 -131 -75q-52 0 -82 8l-1013 433v-361q0 -79 -78 -79q-83 0 -96 7q-48 15 -48 72v1061q0 78 78 78h894q208 0 342 -54q191 -77 191 -254v-147zM1346 753v154q0 122 -312 122h-749v-390
h789q272 0 272 114zM1018 1557q0 -21 -146 -167q-66 -66 -102 -101.5t-44 -40.5q-23 -15 -46 -15q-67 0 -67 56q0 20 18 38l279 276q13 13 34 13q27 0 50.5 -17t23.5 -42z" />
    <glyph glyph-name="racute" unicode="&#x155;" horiz-adv-x="711" 
d="M667 851q0 -79 -94 -79q-13 0 -37.5 1.5t-37.5 1.5q-243 0 -243 -121v-583q0 -58 -44 -73q-18 -6 -92 -6q-75 0 -75 80v582q0 188 193 255q118 42 351 42q79 0 79 -100zM560 1302q0 -21 -146 -167q-66 -66 -102 -101.5t-44 -40.5q-23 -15 -46 -15q-67 0 -67 56
q0 20 18 38l279 276q13 13 34 13q27 0 50.5 -17t23.5 -42z" />
    <glyph glyph-name="Abreve" unicode="&#x102;" horiz-adv-x="1772" 
d="M1746 75q0 -46 -31 -77t-77 -31q-64 0 -104 60l-197 286h-936l-197 -286q-32 -47 -69 -47t-71 24q-38 26 -38 61q0 11 6 20l702 1073q43 66 148 66q78 0 104 -44q2 -3 4.5 -8.5t7.5 -13.5l744 -1053q4 -7 4 -30zM1207 497l-337 497l-339 -497h676zM581 1563
q-16 16 -16 36q0 23 21 43q22 21 44 21q27 0 39 -20q124 -169 219 -169q51 0 101.5 41.5t111.5 126.5q7 12 19 16.5t22 4.5q12 0 23.5 -5.5t20.5 -15t14.5 -21t5.5 -23.5t-3 -19.5t-7 -13.5q-86 -104 -159 -158t-149 -54q-73 0 -147.5 50.5t-159.5 159.5z" />
    <glyph glyph-name="abreve" unicode="&#x103;" horiz-adv-x="1539" 
d="M1469 280q0 -288 -432 -288h-516q-166 0 -287 61q-163 78 -163 217v122q0 150 155 225q115 58 288 58h746q-17 101 -286 101q-11 0 -26.5 -0.5t-35.5 -1.5q-1 -1 -10 -1h-9h-16h-25q-78 0 -78 99q0 79 78 79q253 0 387 -35q230 -65 230 -260v-376zM1262 330q0 14 -0.5 35
t-1.5 49t-1.5 49t-0.5 35h-749q-66 0 -136 -24q-91 -31 -91 -81v-121q0 -53 94 -81q60 -22 139 -22h524q118 0 162 23q61 31 61 138zM465 1308q-16 16 -16 36q0 23 21 43q22 21 44 21q27 0 39 -20q124 -169 219 -169q51 0 101.5 41.5t111.5 126.5q7 12 19 16.5t22 4.5
q12 0 23.5 -5.5t20.5 -15t14.5 -21t5.5 -23.5t-3 -19.5t-7 -13.5q-86 -104 -159 -158t-149 -54q-73 0 -147.5 50.5t-159.5 159.5z" />
    <glyph glyph-name="Lacute" unicode="&#x139;" horiz-adv-x="1495" 
d="M1425 71q0 -79 -78 -79h-712q-244 0 -381 44q-211 73 -211 277v819q0 78 78 78q75 0 96 -6q48 -14 48 -72v-819q0 -95 154 -125q49 -13 228 -13h700q78 0 78 -104zM950 1557q0 -21 -146 -167q-66 -66 -102 -101.5t-44 -40.5q-23 -15 -46 -15q-67 0 -67 56q0 20 18 38
l279 276q13 13 34 13q27 0 50.5 -17t23.5 -42z" />
    <glyph glyph-name="lacute" unicode="&#x13a;" horiz-adv-x="370" 
d="M291 71q0 -79 -78 -79q-77 0 -90 7q-43 16 -43 72v1061q0 78 78 78q73 0 91 -6q42 -14 42 -72v-1061zM390 1302q0 -21 -146 -167q-66 -66 -102 -101.5t-44 -40.5q-23 -15 -46 -15q-67 0 -67 56q0 20 18 38l279 276q13 13 34 13q27 0 50.5 -17t23.5 -42z" />
    <glyph glyph-name="Ecaron" unicode="&#x11a;" horiz-adv-x="1459" 
d="M1417 601q0 -97 -83 -97h-1069v-200q0 -129 285 -129h784q78 0 78 -79q0 -104 -78 -104h-794q-174 0 -319 62q-178 81 -178 242v604q0 87 59 158q128 152 457 152h217q77 0 77 -102q0 -79 -77 -79h-32h-20h-11q-11 0 -12 1q-25 1 -43 1.5t-30 0.5q-365 0 -365 -132v-213
h1072q82 0 82 -86zM381 1555q0 58 69 58q35 0 69 -31q10 -10 24 -23.5t33 -32.5q15 -14 53 -50t101 -94q70 72 126 124t98 87q22 18 51 18q73 0 73 -58q0 -17 -16 -33l-266 -267q-29 -29 -66 -29t-66 29l-267 267q-16 16 -16 35z" />
    <glyph glyph-name="ecaron" unicode="&#x11b;" horiz-adv-x="1410" 
d="M1368 455q0 -87 -59 -87h-1049v-7q0 -136 160 -175q35 -8 101.5 -12.5t169.5 -4.5q78 0 78 -98q0 -79 -78 -79q-106 0 -173.5 1.5t-102.5 5.5q-174 18 -256 82q-117 91 -117 214v353q0 166 180 246q123 58 326 58h394q166 0 275 -55q151 -70 151 -211v-231zM1162 551v118
q0 108 -429 108q-253 0 -347 -18q-133 -25 -133 -98v-110h909zM356 1300q0 58 69 58q35 0 69 -31q10 -10 24 -23.5t33 -32.5q15 -14 53 -50t101 -94q70 72 126 124t98 87q22 18 51 18q73 0 73 -58q0 -17 -16 -33l-266 -267q-29 -29 -66 -29t-66 29l-267 267q-16 16 -16 35z
" />
    <glyph glyph-name="Dcaron" unicode="&#x10e;" horiz-adv-x="1670" 
d="M1594 321q0 -172 -173 -261q-134 -68 -327 -68h-940q-78 0 -78 79v1061q0 78 78 78h945q495 0 495 -310v-579zM1374 322v577q0 71 -108 106q-77 24 -173 24h-795v-854h791q103 0 178 27q107 38 107 120zM486 1555q0 58 69 58q35 0 69 -31q10 -10 24 -23.5t33 -32.5
q15 -14 53 -50t101 -94q70 72 126 124t98 87q22 18 51 18q73 0 73 -58q0 -17 -16 -33l-266 -267q-29 -29 -66 -29t-66 29l-267 267q-16 16 -16 35z" />
    <glyph glyph-name="dcaron" unicode="&#x10f;" horiz-adv-x="1504" 
d="M1425 287q0 -154 -191 -234q-135 -61 -325 -61h-322q-489 0 -505 271q-3 48 -3 126q0 157 6 256q18 298 499 298h630v187q0 79 78 79q56 0 90 -8q43 -15 43 -71v-843zM1214 291v475h-635q-283 0 -283 -125v-340q0 -93 107 -120q46 -12 181 -12h304q326 0 326 122z
M403 1300q0 58 69 58q35 0 69 -31q10 -10 24 -23.5t33 -32.5q15 -14 53 -50t101 -94q70 72 126 124t98 87q22 18 51 18q73 0 73 -58q0 -17 -16 -33l-266 -267q-29 -29 -66 -29t-66 29l-267 267q-16 16 -16 35z" />
    <glyph glyph-name="ncaron" unicode="&#x148;" horiz-adv-x="1455" 
d="M1381 71q0 -79 -79 -79q-78 0 -91 7q-43 15 -43 72v610q0 65 -108 85q-19 4 -58.5 5.5t-99.5 1.5h-364q-55 0 -92.5 -2t-59.5 -6q-102 -20 -102 -85v-609q0 -79 -78 -79t-91 7q-42 15 -42 72v607q0 273 484 273h345q479 0 479 -271v-609zM379 1300q0 58 69 58
q35 0 69 -31q10 -10 24 -23.5t33 -32.5q15 -14 53 -50t101 -94q70 72 126 124t98 87q22 18 51 18q73 0 73 -58q0 -17 -16 -33l-266 -267q-29 -29 -66 -29t-66 29l-267 267q-16 16 -16 35z" />
    <glyph glyph-name="Ncaron" unicode="&#x147;" horiz-adv-x="1671" 
d="M1590 123q0 -139 -122 -139q-56 0 -127 59l-1037 881v-853q0 -59 -48 -74q-14 -2 -38 -3.5t-58 -1.5q-78 0 -78 79v1016q0 132 114 132q72 0 148 -64l1023 -871v848q0 58 48 73q14 2 38 3.5t58 1.5q79 0 79 -78v-1009zM487 1555q0 58 69 58q35 0 69 -31q10 -10 24 -23.5
t33 -32.5q15 -14 53 -50t101 -94q70 72 126 124t98 87q22 18 51 18q73 0 73 -58q0 -17 -16 -33l-266 -267q-29 -29 -66 -29t-66 29l-267 267q-16 16 -16 35z" />
    <glyph glyph-name="uni0110" unicode="&#x110;" horiz-adv-x="1743" 
d="M156 688v444q0 78 78 78h945q495 0 495 -310v-579q0 -172 -173 -261q-134 -68 -327 -68h-940q-78 0 -78 79v449h-136q-44 0 -53 25q-3 9 -3 65q0 78 56 78h136zM543 597q0 -77 -56 -77h-109v-345h791q101 0 178 27q107 38 107 120v577q0 72 -109 106q-77 24 -172 24h-795
v-341h109q44 0 53 -26q3 -8 3 -65z" />
    <glyph glyph-name="Ohungarumlaut" unicode="&#x150;" horiz-adv-x="1626" 
d="M1550 319q0 -327 -565 -327h-346q-229 0 -361 58q-202 82 -202 268v562q0 330 563 330h346q263 0 371 -46q194 -75 194 -284v-561zM1327 324v551q0 154 -337 154h-352q-340 0 -340 -154v-551q0 -149 340 -149h353q336 0 336 149zM577 1323q-18 -20 -44 -20q-55 0 -55 57
q0 24 17 41l255 272q20 20 47 20q57 0 57 -55q0 -25 -16 -44zM869 1321q-15 -18 -42 -18q-57 0 -57 57q0 24 17 41l256 272q23 20 48 20q56 0 56 -55q0 -25 -16 -44z" />
    <glyph glyph-name="ohungarumlaut" unicode="&#x151;" 
d="M1377 290q0 -164 -162 -240q-115 -58 -306 -58h-351q-174 0 -315 59q-174 78 -174 239v353q0 161 173 244q127 64 315 64h352q468 0 468 -306v-355zM1163 290v369q0 114 -260 114h-343q-96 0 -172 -24q-108 -35 -108 -106v-353q0 -68 110 -100q73 -21 171 -21h343
q83 0 157 24q102 33 102 97zM487 1068q-18 -20 -44 -20q-55 0 -55 57q0 24 17 41l255 272q20 20 47 20q57 0 57 -55q0 -25 -16 -44zM779 1066q-15 -18 -42 -18q-57 0 -57 57q0 24 17 41l256 272q23 20 48 20q56 0 56 -55q0 -25 -16 -44z" />
    <glyph glyph-name="uhungarumlaut" unicode="&#x171;" horiz-adv-x="1494" 
d="M1417 278q0 -289 -612 -289q-17 0 -44 0.5t-63 1.5q-1 1 -8 1h-9h-16h-29h-45q-514 0 -514 286v594q0 79 78 79t91 -7q42 -15 42 -72v-594q0 -109 303 -109h315q297 0 297 106v597q0 57 43 72q13 7 92 7t79 -79v-594zM511 1068q-18 -20 -44 -20q-55 0 -55 57q0 24 17 41
l255 272q20 20 47 20q57 0 57 -55q0 -25 -16 -44zM803 1066q-15 -18 -42 -18q-57 0 -57 57q0 24 17 41l256 272q23 20 48 20q56 0 56 -55q0 -25 -16 -44z" />
    <glyph glyph-name="Uhungarumlaut" unicode="&#x170;" horiz-adv-x="1663" 
d="M1583 335q0 -347 -665 -347q-20 0 -50.5 0.5t-70.5 1.5t-70 1.5t-50 0.5q-468 0 -563 176q-33 61 -33 167v797q0 78 78 78q75 0 96 -6q49 -15 49 -72v-782q0 -116 141 -155q42 -10 99.5 -15t135.5 -5h306q175 0 235 19q141 37 141 155v783q0 58 47 72q19 6 96 6
q78 0 78 -78v-797zM596 1323q-18 -20 -44 -20q-55 0 -55 57q0 24 17 41l255 272q20 20 47 20q57 0 57 -55q0 -25 -16 -44zM888 1321q-15 -18 -42 -18q-57 0 -57 57q0 24 17 41l256 272q23 20 48 20q56 0 56 -55q0 -25 -16 -44z" />
    <glyph glyph-name="uni0162" unicode="&#x162;" horiz-adv-x="1390" 
d="M1375 1108q0 -79 -78 -79h-493v-958q0 -79 -77 -79q-78 0 -97 6q-47 14 -47 73v958h-489q-79 0 -79 79q0 54 12 74q16 28 67 28h1203q78 0 78 -102zM805 -107q0 -244 -191 -244h-180q-78 0 -78 92q0 89 78 89h100q47 0 59 49q2 23 3.5 45t3.5 44q18 48 103 48
q102 0 102 -78v-45z" />
    <glyph glyph-name="uni0163" unicode="&#x163;" horiz-adv-x="825" 
d="M803 845q0 -78 -79 -78h-334v-696q0 -79 -78 -79q-77 0 -90 7q-43 16 -43 72v696q-42 0 -68.5 1.5t-37.5 3.5q-50 17 -50 83t50 83q11 2 37.5 3.5t68.5 1.5v189q0 78 78 78q77 0 90 -7q43 -15 43 -71v-189h334q79 0 79 -98zM394 -107q0 -244 -191 -244h-180q-78 0 -78 92
q0 89 78 89h100q47 0 59 49q2 23 3.5 45t3.5 44q18 48 103 48q102 0 102 -78v-45z" />
    <glyph glyph-name="Rcaron" unicode="&#x158;" horiz-adv-x="1632" 
d="M1568 755q0 -165 -174 -241q-138 -56 -318 -56h-366l742 -315q59 -26 59 -77q0 -75 -131 -75q-52 0 -82 8l-1013 433v-361q0 -79 -78 -79q-83 0 -96 7q-48 15 -48 72v1061q0 78 78 78h894q208 0 342 -54q191 -77 191 -254v-147zM1346 753v154q0 122 -312 122h-749v-390
h789q272 0 272 114zM467 1555q0 58 69 58q35 0 69 -31q10 -10 24 -23.5t33 -32.5q15 -14 53 -50t101 -94q70 72 126 124t98 87q22 18 51 18q73 0 73 -58q0 -17 -16 -33l-266 -267q-29 -29 -66 -29t-66 29l-267 267q-16 16 -16 35z" />
    <glyph glyph-name="rcaron" unicode="&#x159;" horiz-adv-x="711" 
d="M667 851q0 -79 -94 -79q-13 0 -37.5 1.5t-37.5 1.5q-243 0 -243 -121v-583q0 -58 -44 -73q-18 -6 -92 -6q-75 0 -75 80v582q0 188 193 255q118 42 351 42q79 0 79 -100zM9 1300q0 58 69 58q35 0 69 -31q10 -10 24 -23.5t33 -32.5q15 -14 53 -50t101 -94q70 72 126 124
t98 87q22 18 51 18q73 0 73 -58q0 -17 -16 -33l-266 -267q-29 -29 -66 -29t-66 29l-267 267q-16 16 -16 35z" />
    <glyph glyph-name="uring" unicode="&#x16f;" horiz-adv-x="1494" 
d="M1417 278q0 -289 -612 -289q-17 0 -44 0.5t-63 1.5q-1 1 -8 1h-9h-16h-29h-45q-514 0 -514 286v594q0 79 78 79t91 -7q42 -15 42 -72v-594q0 -109 303 -109h315q297 0 297 106v597q0 57 43 72q13 7 92 7t79 -79v-594zM938 1211q0 -79 -57 -128q-55 -49 -135 -49
q-78 0 -133 49q-58 51 -58 128q0 78 57 128q54 48 134 48q78 0 134 -48q58 -51 58 -128zM868 1211q0 49 -36 81q-38 32 -86 32t-86 -32q-36 -32 -36 -81q0 -50 36 -81q38 -32 86 -32t86 32q36 31 36 81z" />
    <glyph glyph-name="Uring" unicode="&#x16e;" horiz-adv-x="1663" 
d="M1583 335q0 -347 -665 -347q-20 0 -50.5 0.5t-70.5 1.5t-70 1.5t-50 0.5q-468 0 -563 176q-33 61 -33 167v797q0 78 78 78q75 0 96 -6q49 -15 49 -72v-782q0 -116 141 -155q42 -10 99.5 -15t135.5 -5h306q175 0 235 19q141 37 141 155v783q0 58 47 72q19 6 96 6
q78 0 78 -78v-797zM1023 1466q0 -79 -57 -128q-55 -49 -135 -49q-78 0 -133 49q-58 51 -58 128q0 78 57 128q54 48 134 48q78 0 134 -48q58 -51 58 -128zM953 1466q0 49 -36 81q-38 32 -86 32t-86 -32q-36 -32 -36 -81q0 -50 36 -81q38 -32 86 -32t86 32q36 31 36 81z" />
    <glyph glyph-name="Lcaron" unicode="&#x13d;" horiz-adv-x="1495" 
d="M1425 71q0 -79 -78 -79h-712q-244 0 -381 44q-211 73 -211 277v819q0 78 78 78q75 0 96 -6q48 -14 48 -72v-819q0 -95 154 -125q49 -13 228 -13h700q78 0 78 -104zM657 1222q0 -5 -0.5 -11t-1.5 -12l-48 -290q-7 -49 -54 -61q-11 -2 -33 -3.5t-55 -1.5q-79 0 -79 69
q0 5 0.5 10t1.5 12l46 291q7 47 54 61q10 2 32 3.5t57 1.5q80 0 80 -69z" />
    <glyph glyph-name="tcaron" unicode="&#x165;" horiz-adv-x="825" 
d="M803 845q0 -78 -79 -78h-334v-696q0 -79 -78 -79q-77 0 -90 7q-43 16 -43 72v696q-42 0 -68.5 1.5t-37.5 3.5q-50 17 -50 83t50 83q11 2 37.5 3.5t68.5 1.5v189q0 78 78 78q77 0 90 -7q43 -15 43 -71v-189h334q79 0 79 -98zM764 1351q0 -5 -0.5 -11t-1.5 -12l-48 -290
q-7 -49 -54 -61q-11 -2 -33 -3.5t-55 -1.5q-79 0 -79 69q0 5 0.5 10t1.5 12l46 291q7 47 54 61q10 2 32 3.5t57 1.5q80 0 80 -69z" />
    <glyph glyph-name="lcaron" unicode="&#x13e;" horiz-adv-x="597" 
d="M291 71q0 -79 -78 -79q-77 0 -90 7q-43 16 -43 72v1061q0 78 78 78q73 0 91 -6q42 -14 42 -72v-1061zM620 1270q0 -5 -0.5 -11t-1.5 -12l-48 -290q-7 -49 -54 -61q-11 -2 -33 -3.5t-55 -1.5q-79 0 -79 69q0 5 0.5 10t1.5 12l46 291q7 47 54 61q10 2 32 3.5t57 1.5
q80 0 80 -69z" />
    <glyph glyph-name="percent" unicode="%" horiz-adv-x="1950" 
d="M1911 176q0 -142 -188 -189q-49 -11 -124 -17t-178 -6q-423 0 -423 206v157q0 140 168 187q78 25 281 25q204 0 288 -25q176 -47 176 -187v-151zM1682 1148q0 -36 -36 -70l-1106 -1057q-32 -29 -172 -29q-82 0 -82 67q0 36 35 69l1111 1061q25 24 164 24q86 0 86 -65z
M953 835q0 -216 -476 -216q-437 0 -437 210v157q0 138 168 186q102 26 281 26t288 -26q176 -48 176 -186v-151zM1646 236v22q0 94 -131 94h-20h-13q-14 0 -15 1q-16 1 -28 1.5t-20 0.5q-183 0 -183 -97q0 -78 63 -103q51 -17 129 -17q218 0 218 98zM689 895q0 86 -79 108
q-23 5 -60 8t-88 3q-184 0 -184 -96q0 -120 181 -120q230 0 230 97z" />
    <glyph glyph-name="numbersign" unicode="#" horiz-adv-x="1464" 
d="M1421 778q0 -40 -24 -73q-29 -36 -67 -36h-256l-49 -134h196q82 0 82 -72q0 -39 -25 -73q-29 -38 -66 -38h-255l-102 -276q-14 -39 -57 -48q-14 -3 -80 -3q-81 0 -81 63q0 8 8 42l82 222h-175l-101 -276q-14 -39 -57 -48q-14 -3 -80 -3q-82 0 -82 63q0 16 9 42l81 222
h-195q-85 0 -85 68q0 40 28 77q29 38 67 38h254l49 134h-196q-82 0 -82 72q0 42 25 73q28 37 66 37h256l101 277q15 39 57 48q15 3 80 3q82 0 82 -63q0 -18 -9 -43l-81 -222h173l102 277q15 40 58 49q5 1 25 1.5t55 0.5q81 0 81 -63q0 -9 -8 -43l-82 -222h196q82 0 82 -73z
M846 669h-177l-48 -134h175z" />
    <glyph glyph-name="dollar" unicode="$" horiz-adv-x="1469" 
d="M1426 292q0 -297 -573 -297q0 -78 -35 -98q-31 -11 -109 -11q-52 0 -68 31q-10 19 -10 78l-387 -1q-48 0 -79.5 2t-48.5 6q-72 19 -72 90q0 85 82 85h505v338q-495 0 -565 223q-10 21 -10 162q0 308 575 308q0 71 40 87q13 7 103 7q79 0 79 -77v-528q573 0 573 -295v-110
zM1206 290v105q0 86 -143 110q-39 10 -210 10v-338h19h11q14 0 15 -1t7 -1h7h12h19q263 0 263 115zM631 693v334q-79 0 -132 -2.5t-79 -7.5q-143 -26 -143 -115v-90q0 -84 144 -109q39 -10 210 -10z" />
    </font>
</defs>
</svg>
