<?xml version="1.0" standalone="no"?>
<!DOCTYPE svg PUBLIC "-//W3C//DTD SVG 1.1//EN" "http://www.w3.org/Graphics/SVG/1.1/DTD/svg11.dtd" >
<svg>
<metadata>
Created by FontForge 20090914 at Sat Mar  1 17:06:38 2014
 By www-data
Aurebesh &#194;&#169; (Neale Davidson). 2013. All Rights Reserved
</metadata>
<defs>
<font id="Aurebesh" horiz-adv-x="1650" >
  <font-face 
    font-family="Aurebesh"
    font-weight="400"
    font-stretch="normal"
    units-per-em="2048"
    panose-1="2 0 5 0 0 0 0 0 0 0"
    ascent="1638"
    descent="-410"
    x-height="1450"
    cap-height="1450"
    bbox="-0.000976562 -400 2050 1900"
    underline-thickness="150"
    underline-position="-142"
    unicode-range="U+001D-U+F002"
  />
<missing-glyph 
d="M0 200v1100c0 133.333 66.667 200 200 200h1100c133.333 0 200 -66.667 200 -200v-1100c0 -133.333 -66.667 -200 -200 -200h-1100c-133.333 0 -200 66.667 -200 200zM1475 201v1099c0 116.667 -58.333 175 -175 175h-1100c-116 0 -174.333 -58.333 -175 -175v-1100
c0.666992 -116.667 59 -175 175 -175h1101c116 0 174 58.667 174 176z" />
    <glyph glyph-name=".notdef" 
d="M0 200v1100c0 133.333 66.667 200 200 200h1100c133.333 0 200 -66.667 200 -200v-1100c0 -133.333 -66.667 -200 -200 -200h-1100c-133.333 0 -200 66.667 -200 200zM1475 201v1099c0 116.667 -58.333 175 -175 175h-1100c-116 0 -174.333 -58.333 -175 -175v-1100
c0.666992 -116.667 59 -175 175 -175h1101c116 0 174 58.667 174 176z" />
    <glyph glyph-name=".null" horiz-adv-x="0" 
 />
    <glyph glyph-name=".null" horiz-adv-x="0" 
 />
    <glyph glyph-name="space" unicode=" " horiz-adv-x="1187" 
 />
    <glyph glyph-name="space" unicode="&#xa0;" horiz-adv-x="1187" 
 />
    <glyph glyph-name="exclam" unicode="!" horiz-adv-x="700" 
d="M550 1300v-250l-550 -400v250zM550 800v-250l-550 -400v250z" />
    <glyph glyph-name="quotedbl" unicode="&#x22;" horiz-adv-x="1000" 
d="M0 700v750h200v-510l425 510h225l-625 -750h-225z" />
    <glyph glyph-name="numbersign" unicode="#" horiz-adv-x="1550" 
d="M0 850h600v600h-200v-400h-400v-200zM0 600h600v-600h-200v400h-400v200zM1400 850v200h-400v400h-200v-600h600zM1400 600h-600v-600h200v400h400v200z" />
    <glyph glyph-name="dollar" unicode="$" horiz-adv-x="1550" 
d="M200 1051h-200v199h200v200h200v-200h200v200h200v-200h600v-200l-750 -1050h-250l750 1050h-350v-200h-200v200l-200 1v-201h-200v201z" />
    <glyph glyph-name="percent" unicode="%" horiz-adv-x="1750" 
d="M350 650h100c99.333 0 149 100 149 300s-50 300 -150 300h-100c-91.333 0 -141 -83.333 -149 -250c0 -233.333 50 -350 150 -350zM300 1050h200v-200h-200v200zM1150 200h100c99.333 0 149 100 149 300s-50 300 -150 300h-100c-91.333 0 -141 -83.333 -149 -250
c0 -233.333 50 -350 150 -350zM1100 600h200v-200h-200v200zM600 465c-16 -6.66699 -32.668 -11.666 -50.001 -14.999h-300c-166.667 33.333 -250 216.666 -250 549.999c8.66699 268.667 91.667 418.667 249 450h300c166.667 -33.333 250.334 -200 251.001 -500v500h200
v-465c15.333 6.66699 31.666 11.667 48.999 15h300c166.667 -33.333 250.334 -200 251.001 -500c0 -300 -83.333 -466.667 -250 -500h-300c-158.667 32 -241.667 199 -249 501l-1 -1v-500h-200v465z" />
    <glyph glyph-name="ampersand" unicode="&#x26;" horiz-adv-x="1750" 
d="M475 0l-475 1450h225l375 -1145l375 1145h625v-200h-200v-1050h200v-200h-1125zM1200 200v1050h-44l-362 -1050h406z" />
    <glyph glyph-name="quotesingle" unicode="'" horiz-adv-x="550" 
d="M400 1650v-750h-200v550h-200v200h400z" />
    <glyph glyph-name="parenleft" unicode="(" horiz-adv-x="550" 
d="M400 625h-200v-625h-200v1450h200v-625h200v-200z" />
    <glyph glyph-name="parenright" unicode=")" horiz-adv-x="550" 
d="M0 825h200v625h200v-1450h-200v625h-200v200z" />
    <glyph glyph-name="asterisk" unicode="*" horiz-adv-x="950" 
d="M634 1150h166v-200h-158l108 -108l-141 -142l-109 109v-159h-200v165l-116 -115l-141 142l108 108h-151v200h159l-116 116l141 141l116 -115v158h200v-152l109 109l141 -141z" />
    <glyph glyph-name="plus" unicode="+" horiz-adv-x="1250" 
d="M650 625v-450h-200v450h-450v200h450v450h200v-450h450v-200h-450z" />
    <glyph glyph-name="comma" unicode="," horiz-adv-x="350" 
d="M0 0v600h200v-600h-200z" />
    <glyph glyph-name="hyphen" unicode="-" horiz-adv-x="1250" 
d="M1100 625h-1100v200h1100v-200z" />
    <glyph glyph-name="hyphen" unicode="&#xad;" horiz-adv-x="1250" 
d="M1100 625h-1100v200h1100v-200z" />
    <glyph glyph-name="period" unicode="." horiz-adv-x="750" 
d="M0 0v600h200v-600h-200zM400 0v600h200l-2 -600h-198z" />
    <glyph glyph-name="slash" unicode="/" horiz-adv-x="550" 
d="M200 950v500h200v-500l-200 -450v-500h-200v500z" />
    <glyph glyph-name="zero" unicode="0" 
d="M350 1250c-100 0 -150 -100 -150 -300v-450c0 -200 50 -300 150 -300h800c100 0 150 100 150 300v450c0 200 -50 300 -150 300h-800zM250 0c-166.667 33.333 -250 200 -250 500v450c-0 300 83.333 466.667 250 500h1000c166.667 -33.333 250 -200 250 -500v-450
c0 -300 -83.333 -466.667 -250 -500h-1000zM650 825h200v-200h-200v200z" />
    <glyph glyph-name="one" unicode="1" horiz-adv-x="1550" 
d="M0 1450v-200h600v-1050h-600v-200h1400v200h-600v1250h-800z" />
    <glyph glyph-name="two" unicode="2" horiz-adv-x="1550" 
d="M349 1250c-91.333 0 -141.001 -83.333 -149.001 -250h-200c8.66699 268.667 91.667 418.667 249 450h900c166.667 -33.333 250.334 -200 251.001 -500c0 -300 -83.333 -466.667 -250 -500h-1150v200h1050c99.333 0 149 100 149 300s-50 300 -150 300h-700z
M-0.000976562 200h1400v-200h-1400v200z" />
    <glyph glyph-name="three" unicode="3" horiz-adv-x="1550" 
d="M349 200h701c100 0 150 100 150 300v450c0 200 -50 300 -150 300h-701c-91.333 0 -141 -83.333 -149 -250h-200c8.66699 268.667 91.667 418.667 249 450h901c166.667 -33.333 250 -200 250 -500v-450c0 -300 -83.333 -466.667 -250 -500h-901
c-157.333 31.333 -240.333 181.333 -249 450h200c8 -166.667 57.667 -250 149 -250zM0 850v-200h1000v200h-1000z" />
    <glyph glyph-name="four" unicode="4" horiz-adv-x="1550" 
d="M0 1450h200v-600h1000v600h200v-1450h-200v650h-1200v800z" />
    <glyph glyph-name="five" unicode="5" horiz-adv-x="1550" 
d="M1049 200c100 0 150.001 100 150.001 300s-49.667 300 -149 300h-1050v200h1150c166.667 -33.333 250 -200 250 -500c-0.666992 -300 -84.334 -466.667 -251.001 -500h-900c-157.333 31.333 -240.333 181.333 -249 450h200c8 -166.667 57.667 -250 149 -250h700z
M0.000976562 1450h1400v-200h-1400v200z" />
    <glyph glyph-name="six" unicode="6" horiz-adv-x="1550" 
d="M0 1450h1400v-200h-1400v200zM200 450c8 -166.667 57.667 -250 149 -250h700c100 0 150 100 150 300s-49.667 300 -149 300h-700c-100 0 -150 -116.667 -150 -350zM0 450c0 333.333 83.334 516.667 250.001 550h900c166.667 -33.333 250 -200 250 -500
c-0.666992 -300 -84.334 -466.667 -251.001 -500h-900c-157.333 31.333 -240.333 181.333 -249 450z" />
    <glyph glyph-name="seven" unicode="7" horiz-adv-x="1550" 
d="M0 1450v-200h1200v-1250h200v1450h-1400z" />
    <glyph glyph-name="eight" unicode="8" 
d="M350 625c-100 0 -150 -66.667 -150 -200c0 -150 50 -225 150 -225h800c100 0 150 75 150 225c0 133.333 -50 200 -150 200h-800zM350 1250c-100 0 -150 -66.667 -150 -200c0 -150 50 -225 150 -225h800c100 0 150 75 150 225c0 133.333 -50 200 -150 200h-800zM1427 728
c48.667 -67.333 73 -168.333 73 -303c0 -266.667 -83.333 -408.334 -250 -425.001h-1000c-166.667 16.667 -250 158.334 -250 425.001c-0 134.667 24.333 235.667 73 303c-48.667 70.667 -73 178 -73 322c-0 250 83.333 383.333 250 400h1000
c166.667 -16.667 250 -150 250 -400c0 -144 -24.333 -251.333 -73 -322z" />
    <glyph glyph-name="nine" unicode="9" horiz-adv-x="1550" 
d="M0 200h1400v-200h-1400v200zM350 650h700c99.333 0 149 100 149 300s-50 300 -150 300h-700c-91.333 0 -141 -83.333 -149 -250c0 -233.333 50 -350 150 -350zM249 1450l899.999 0.000976562c166.667 -33.333 250.334 -200 251.001 -500
c0 -300 -83.333 -466.667 -250 -500h-900c-166.667 33.333 -250 216.666 -250 549.999c8.66699 268.667 91.667 418.667 249 450z" />
    <glyph glyph-name="colon" unicode=":" horiz-adv-x="850" 
d="M450 200l-450 550h250l450 -550v-200h-700v200h450z" />
    <glyph glyph-name="semicolon" unicode=";" horiz-adv-x="350" 
d="M200 0h-200v1450h200v-1450z" />
    <glyph glyph-name="semicolon" unicode="&#x37e;" horiz-adv-x="350" 
d="M200 0h-200v1450h200v-1450z" />
    <glyph glyph-name="less" unicode="&#x3c;" horiz-adv-x="1250" 
d="M0 850l1100 400v-200l-894 -325l894 -325v-200l-1100 400v250z" />
    <glyph glyph-name="equal" unicode="=" horiz-adv-x="1250" 
d="M1100 400h-1100v200h1100v-200zM1100 850h-1100v200h1100v-200z" />
    <glyph glyph-name="greater" unicode="&#x3e;" horiz-adv-x="1250" 
d="M1100 600l-1100 -400v200l894 325l-894 325v200l1100 -400v-250z" />
    <glyph glyph-name="question" unicode="?" horiz-adv-x="700" 
d="M200 200c100 0 150 100 150 300v450c0 200 -50 300 -150 300v-250h-200v450h300c166.667 -33.333 250 -200 250 -500v-450c0 -300 -83.333 -466.667 -250 -500h-100v200z" />
    <glyph glyph-name="at" unicode="@" horiz-adv-x="1550" 
d="M1400 1450l-582 -625h-418v200h354l210 225h-614c-100 0 -150 -100 -150 -300v-450c0 -200 50 -300 150 -300h614l-210 225h-354v200h418l582 -625h-1150c-166.667 33.333 -250 200 -250 500v450c-0 300 83.333 466.667 250 500h1150z" />
    <glyph glyph-name="A" unicode="A" horiz-adv-x="1900" 
d="M582 825l-582 625h250l396 -425h904v425h200v-625h-1168zM1750 625v-625h-200v425h-904l-396 -425h-250l582 625h1168z" />
    <glyph glyph-name="B" unicode="B" horiz-adv-x="1950" 
d="M1450 825v-200h-1150v200h1150zM462 1250l-212 -225h-250l400 425h950l400 -425h-250l-212 225h-826zM400 0l-400 425h250l212 -225h826l212 225h250l-400 -425h-950z" />
    <glyph glyph-name="C" unicode="C" horiz-adv-x="1150" 
d="M600 950v-450h-200v450h200zM1000 1450v-950h-200v950h200zM200 950v-950h-200v950h200z" />
    <glyph glyph-name="D" unicode="D" horiz-adv-x="1550" 
d="M1200 825v-200h-525l425 -625h-250l-425 625l-425 625v200h1400v-199l-1150 -1l289 -425h661z" />
    <glyph glyph-name="E" unicode="E" horiz-adv-x="1750" 
d="M400 1250v-1250h-200v1250h-200v200h625l375 -1145l375 1145h225l-475 -1450h-250l-431 1250h-44z" />
    <glyph glyph-name="F" unicode="F" horiz-adv-x="1750" 
d="M900 643v-443h500v425h-200c-105.333 0 -205.333 6 -300 18zM0 0l-0.000976562 200h700v480c-291.333 71.333 -524.666 211.333 -699.999 420v250c184 -227.333 417.333 -381 700 -461v561h200v-603c95.333 -14.667 195.333 -22 300 -22h400v-825h-1600z" />
    <glyph glyph-name="G" unicode="G" horiz-adv-x="2000" 
d="M650 0l-650 1450h1401l-1 -200v-200h-200v200h-860l470 -1050h790v1250h200v-1450h-1150z" />
    <glyph glyph-name="H" unicode="H" horiz-adv-x="1550" 
d="M1200 625h-1000v200h1000v-200zM1400 200v-200h-1400v200h1400zM0 1250v200h1400v-200h-1400z" />
    <glyph glyph-name="I" unicode="I" horiz-adv-x="700" 
d="M550 1150l-100 -150l-250 200v-1200h-200v1450h200z" />
    <glyph glyph-name="J" unicode="J" horiz-adv-x="1750" 
d="M250 1450c233.333 -416.667 600 -625 1100 -625h250v-200h-250c-322.667 0 -600 75.333 -832 226l292 -651h790v-200h-950l-650 1450h250z" />
    <glyph glyph-name="K" unicode="K" horiz-adv-x="1950" 
d="M1600 450h200c-8.66699 -268.667 -91.667 -418.667 -249 -450h-1301c-166.667 33.333 -250 200 -250 500v450c-0 300 83.333 466.667 250 500h1301c157.333 -31.333 240.333 -181.333 249 -450h-200c-8 166.667 -57.667 250 -149 250h-1101c-100 0 -150 -100 -150 -300
v-450c0 -200 50 -300 150 -300h1101c91.333 0 141 83.333 149 250z" />
    <glyph glyph-name="L" unicode="L" horiz-adv-x="1550" 
d="M0 0v1450h200v-1217l1000 667l200 -100l-1200 -800h-200z" />
    <glyph glyph-name="M" unicode="M" horiz-adv-x="1500" 
d="M700 1450l650 -1450h-1350l1 200h1009l-470 1050h-540v200h700z" />
    <glyph glyph-name="N" unicode="N" horiz-adv-x="1750" 
d="M1256 200c100 0 150 100 150 300v450c0 200 -50 300 -150 300v200h100c166.667 -33.333 250 -200 250 -500v-450c0 -300 -83.333 -466.667 -250 -500h-375l-381 1145l-375 -1145h-225l475 1450h250l431 -1250h100z" />
    <glyph glyph-name="O" unicode="O" horiz-adv-x="2100" 
d="M710 1250l-470 -1050h1470l-470 1050h-530zM100 0l-100 200l550 1250h850l550 -1250l-100 -200h-1750z" />
    <glyph glyph-name="P" unicode="P" horiz-adv-x="1550" 
d="M200 200h850c100 0 150 100 150 300v450c0 200 -50 300 -150 300v-250h-200v450h300c166.667 -33.333 250 -200 250 -500v-450c0 -300 -83.333 -466.667 -250 -500h-1150v1450h200v-1250z" />
    <glyph glyph-name="Q" unicode="Q" horiz-adv-x="1750" 
d="M799 200h450c100 0 150 100 150 300v450c0 200 -50 300 -150 300h-900c-91.333 0 -141 -83.333 -149 -250h-200c8.66699 268.667 91.667 418.667 249 450h1100c166.667 -33.333 250 -200 250 -500v-450c0 -300 -83.333 -466.667 -250 -500h-550v200z" />
    <glyph glyph-name="R" unicode="R" horiz-adv-x="1550" 
d="M250 1250l850 -1250h-250l-850 1250v200h1400v-199z" />
    <glyph glyph-name="S" unicode="S" horiz-adv-x="1750" 
d="M1250 1450h250l-1150 -1450h-350v1450h200v-1324zM750 0l-100 150l850 450l100 -150z" />
    <glyph glyph-name="T" unicode="T" horiz-adv-x="1750" 
d="M700 1450h200v-1184l450 484h250l-700 -752h-200l-700 752h250l450 -484v1184z" />
    <glyph glyph-name="U" unicode="U" horiz-adv-x="1800" 
d="M650 1450l400 -425h-250l-212 225h-388v-900c0 -100 100 -150 300 -150h650c200 0 300 50 300 150v1100h200v-1200c-33.333 -166.667 -200 -250 -500 -250h-650c-300 -0 -466.667 83.333 -500 250v1200h650z" />
    <glyph glyph-name="V" unicode="V" horiz-adv-x="1750" 
d="M900 0h-200v698l-25 27l-675 725h250l550 -591l550 591h250l-675 -725l-25 -27v-698z" />
    <glyph glyph-name="W" unicode="W" horiz-adv-x="2000" 
d="M350 1250c-100 0 -150 -100 -150 -300v-450c0 -200 50 -300 150 -300h1150c100 0 150 100 150 300v450c0 200 -50 300 -150 300h-1150zM250 0c-166.667 33.333 -250 200 -250 500v450c-0 300 83.333 466.667 250 500h1350c166.667 -33.333 250 -200 250 -500v-450
c0 -300 -83.333 -466.667 -250 -500h-1350z" />
    <glyph glyph-name="X" unicode="X" 
d="M50 0l-50 100l600 1350h300l600 -1350l-50 -100h-1400zM1210 200l-460 1027l-460 -1027h920z" />
    <glyph glyph-name="Y" unicode="Y" horiz-adv-x="1750" 
d="M1010 1250l-135 -300h-250l225 500h750l-650 -1450h-300l-650 1450h250l550 -1227l460 1027h-250z" />
    <glyph glyph-name="Z" unicode="Z" horiz-adv-x="1950" 
d="M1150 1250l500 -500h-250l-300 300h-900v-850h1400v200h200v-400h-1800v1450h200v-200h950z" />
    <glyph glyph-name="bracketleft" unicode="[" horiz-adv-x="550" 
d="M200 100v-100h-200v1450h200v-100h200v-200h-200v-850h200v-200h-200z" />
    <glyph glyph-name="backslash" unicode="\" horiz-adv-x="550" 
d="M400 500v-500h-200v500l-200 450v500h200v-500z" />
    <glyph glyph-name="bracketright" unicode="]" horiz-adv-x="550" 
d="M0 100v200h200v850h-200v200h200v100h200v-1450h-200v100h-200z" />
    <glyph glyph-name="asciicircum" unicode="^" horiz-adv-x="650" 
d="M350 1750l150 -200h-200l-50 75l-50 -75h-200l150 200h200z" />
    <glyph glyph-name="underscore" unicode="_" horiz-adv-x="1550" 
d="M1400 -200v-200h-1400v200h1400z" />
    <glyph glyph-name="grave" unicode="`" horiz-adv-x="350" 
d="M100 1750h100v-200h-200v250c-0 66.667 33.333 100 100 100h50v-100c-33.333 0 -50 -16.667 -50 -50z" />
    <glyph glyph-name="a" unicode="a" horiz-adv-x="1900" 
d="M0 825v625h200v-425h904l396 425h250l-582 -625h-1168zM1168 625l582 -625h-250l-396 425h-904v-425h-200v625h1168z" />
    <glyph glyph-name="b" unicode="b" horiz-adv-x="1950" 
d="M1450 825v-200h-1150v200h1150zM462 1250l-212 -225h-250l400 425h950l400 -425h-250l-212 225h-826zM400 0l-400 425h250l212 -225h826l212 225h250l-400 -425h-950z" />
    <glyph glyph-name="c" unicode="c" horiz-adv-x="1150" 
d="M600 950v-450h-200v450h200zM200 1450v-950h-200v950h200zM1000 950v-950h-200v950h200z" />
    <glyph glyph-name="d" unicode="d" horiz-adv-x="1550" 
d="M861 825l289 425l-1150 1v199h1400v-200l-425 -625l-425 -625h-250l425 625h-525v200h661z" />
    <glyph glyph-name="e" unicode="e" horiz-adv-x="1750" 
d="M1156 1250l-431 -1250h-250l-475 1450h225l375 -1145l375 1145h625v-200h-200v-1250h-200v1250h-44z" />
    <glyph glyph-name="f" unicode="f" horiz-adv-x="1750" 
d="M400 625h-200v-425h500v443c-94.667 -12 -194.667 -18 -300 -18zM0 0l-0.000976562 825h400c104.667 0 204.667 7.33301 300 22v603h200v-561c282.667 80 516 233.667 700 461v-250c-175.333 -208.667 -408.666 -348.667 -699.999 -420v-480h700v-200h-1600z" />
    <glyph glyph-name="g" unicode="g" horiz-adv-x="2000" 
d="M0 0v1450h200v-1250h790l470 1050h-860v-200h-200v200l-1 200h1401l-650 -1450h-1150z" />
    <glyph glyph-name="h" unicode="h" horiz-adv-x="1550" 
d="M200 825h1000v-200h-1000v200zM1400 200v-200h-1400v200h1400zM0 1250v200h1400v-200h-1400z" />
    <glyph glyph-name="i" unicode="i" horiz-adv-x="700" 
d="M350 1450h200v-1450h-200v1200l-250 -200l-100 150z" />
    <glyph glyph-name="j" unicode="j" horiz-adv-x="1750" 
d="M1600 1450l-650 -1450h-950v200h790l292 651c-232 -150.667 -509.333 -226 -832 -226h-250v200h250c500 0 866.667 208.333 1100 625h250z" />
    <glyph glyph-name="k" unicode="k" horiz-adv-x="1950" 
d="M349 200h1101c100 0 150 100 150 300v450c0 200 -50 300 -150 300h-1101c-91.333 0 -141 -83.333 -149 -250h-200c8.66699 268.667 91.667 418.667 249 450h1301c166.667 -33.333 250 -200 250 -500v-450c0 -300 -83.333 -466.667 -250 -500h-1301
c-157.333 31.333 -240.333 181.333 -249 450h200c8 -166.667 57.667 -250 149 -250z" />
    <glyph glyph-name="l" unicode="l" horiz-adv-x="1550" 
d="M1200 0l-1200 800l200 100l1000 -667v1217h200v-1450h-200z" />
    <glyph glyph-name="m" unicode="m" horiz-adv-x="1500" 
d="M1350 1450v-200h-540l-470 -1050h1009l1 -200h-1350l650 1450h700z" />
    <glyph glyph-name="n" unicode="n" horiz-adv-x="1750" 
d="M450 200l431 1250h250l475 -1450h-225l-375 1145l-381 -1145h-375c-166.667 33.333 -250 200 -250 500v450c-0 300 83.333 466.667 250 500h100v-200c-100 0 -150 -100 -150 -300v-450c0 -200 50 -300 150 -300h100z" />
    <glyph glyph-name="o" unicode="o" horiz-adv-x="2100" 
d="M710 1250l-470 -1050h1470l-470 1050h-530zM100 0l-100 200l550 1250h850l550 -1250l-100 -200h-1750z" />
    <glyph glyph-name="p" unicode="p" horiz-adv-x="1550" 
d="M1200 1450h200v-1450h-1150c-166.667 33.333 -250 200 -250 500v450c-0 300 83.333 466.667 250 500h300v-450h-200v250c-100 0 -150 -100 -150 -300v-450c0 -200 50 -300 150 -300h850v1250z" />
    <glyph glyph-name="q" unicode="q" horiz-adv-x="1750" 
d="M800 0h-550c-166.667 33.333 -250 200 -250 500v450c-0 300 83.333 466.667 250 500h1100c157.333 -31.333 240.333 -181.333 249 -450h-200c-8 166.667 -57.667 250 -149 250h-900c-100 0 -150 -100 -150 -300v-450c0 -200 50 -300 150 -300h450v-200z" />
    <glyph glyph-name="r" unicode="r" horiz-adv-x="1550" 
d="M0 1251v199h1400v-200l-850 -1250h-250l850 1250z" />
    <glyph glyph-name="s" unicode="s" horiz-adv-x="1750" 
d="M1400 126v1324h200v-1450h-350l-1150 1450h250zM0 450l100 150l850 -450l-100 -150z" />
    <glyph glyph-name="t" unicode="t" horiz-adv-x="1750" 
d="M900 266l450 484h250l-700 -752h-200l-700 752h250l450 -484v1184h200v-1184z" />
    <glyph glyph-name="u" unicode="u" horiz-adv-x="1800" 
d="M1650 1450v-1200c-33.333 -166.667 -200 -250 -500 -250h-650c-300 -0 -466.667 83.333 -500 250v1200h200v-1100c0 -100 100 -150 300 -150h650c200 0 300 50 300 150v900h-388l-212 -225h-250l400 425h650z" />
    <glyph glyph-name="v" unicode="v" horiz-adv-x="1750" 
d="M700 698l-25 27l-675 725h250l550 -591l550 591h250l-675 -725l-25 -27v-698h-200v698z" />
    <glyph glyph-name="w" unicode="w" horiz-adv-x="2000" 
d="M350 1250c-100 0 -150 -100 -150 -300v-450c0 -200 50 -300 150 -300h1150c100 0 150 100 150 300v450c0 200 -50 300 -150 300h-1150zM250 0c-166.667 33.333 -250 200 -250 500v450c-0 300 83.333 466.667 250 500h1350c166.667 -33.333 250 -200 250 -500v-450
c0 -300 -83.333 -466.667 -250 -500h-1350z" />
    <glyph glyph-name="x" unicode="x" 
d="M50 0l-50 100l600 1350h300l600 -1350l-50 -100h-1400zM1210 200l-460 1027l-460 -1027h920z" />
    <glyph glyph-name="y" unicode="y" horiz-adv-x="1750" 
d="M340 1250l460 -1027l550 1227h250l-650 -1450h-300l-650 1450h750l225 -500h-250l-135 300h-250z" />
    <glyph glyph-name="z" unicode="z" horiz-adv-x="1950" 
d="M1600 1250v200h200v-1450h-1800v400h200v-200h1400v850h-900l-300 -300h-250l500 500h950z" />
    <glyph glyph-name="braceleft" unicode="{" horiz-adv-x="1637" 
d="M372 1376c-132 -154 -206.331 -282.328 -222.998 -384.995c-6.66699 -42.667 -10.334 -94 -11.001 -154v-5c0 -102.667 37.667 -185.334 113 -248.001c42.667 -34.667 88 -57 136 -67c14 -2.66699 27 -4 39 -4c65.333 0 119.166 22.167 161.499 66.5
s63.5 99.166 63.5 164.499c0 133.333 -19.333 234.666 -58 303.999c-26 48 -68.667 101.667 -128 161l93 93l139 -186v93l-93 139l140 139l140 -139l-94 -139v-93l140 186l92 -93l-87 -88c-52.667 -58 -81.667 -118.333 -87 -181
c-4.66699 -59.333 -8.33398 -124.666 -11.001 -195.999v-13c0 -60 17 -111 51 -153c37.333 -47.333 88.333 -71 153 -71c22.667 0 47.667 4.66699 75 14c96.667 30.667 166 99 208 205c17.333 44 26 81 26 111v9c0 98 -22 191.667 -66 281c-34 70.667 -90 153.667 -168 249
c105.333 -68.667 192.666 -159.334 261.999 -272.001c72.667 -120 109 -240 109 -360c0 -188 -77 -359 -231 -513s-324.667 -231 -512 -231s-358.166 77.167 -512.499 231.5s-231.5 325.166 -231.5 512.499c0 165.333 59.333 319.666 178 462.999
c54.667 66 119.334 122.333 194.001 169z" />
    <glyph glyph-name="bar" unicode="|" 
d="M0 200v1100c0 133.333 66.667 200 200 200h1100c133.333 0 200 -66.667 200 -200v-1100c0 -133.333 -66.667 -200 -200 -200h-1100c-133.333 0 -200 66.667 -200 200zM1475 201v1099c0 116.667 -58.333 175 -175 175h-1100c-116 0 -174.333 -58.333 -175 -175v-1100
c0.666992 -116.667 59 -175 175 -175h1101c116 0 174 58.667 174 176z" />
    <glyph glyph-name="braceright" unicode="}" 
d="M1333 472l49 -29c45.333 92.667 68 195 68 307s-22.667 214.333 -68 307l-49 -29c12 -25.333 22.667 -51.333 32 -78l-47 -15c18 -58 27 -119.667 27 -185s-9 -127 -27 -185l47 -15c-9.33301 -26.667 -20 -52.667 -32 -78zM800 102l-0.000976562 -50
c172 10.667 320.333 78.334 445 203.001c32.667 32.667 61.334 66.667 86.001 102l-48 28c-17.333 -25.333 -35.666 -49.333 -54.999 -72l-38 34l-20 -21c-86.667 -86.667 -186.334 -141.334 -299.001 -164.001l10 -49c-26 -5.33301 -53 -9 -81 -11zM1283 1115
l48.001 27.999c-24.667 35.333 -53.334 69.333 -86.001 102c-124.667 124.667 -273 192.334 -445 203.001v-50c28 -2 55 -5.66699 81 -11l-10 -49c112.667 -22.667 212.334 -77 299.001 -163l20 -22l38 34c19.333 -22.667 37.666 -46.667 54.999 -72zM210 380.999
l-41.002 -24c24.667 -35.333 53.334 -69.333 86.001 -102c124.667 -124.667 273 -192.334 445 -203.001v49c-31.333 2 -61.666 6 -90.999 12l10 49c-112.667 22.667 -212 77.334 -298 164.001c-7.33301 6.66699 -14.333 13.667 -21 21l-38 -34c-18.667 21.333 -36 44 -52 68
zM159.998 1033l-42 24c-45.333 -92.667 -68 -195 -68 -307s22.667 -214.333 68 -307l42 24c-14 27.333 -25.667 55 -35 83l47 15c-18 58 -27 119.667 -27 185s9 127 27 185l-47 15c9.33301 28 21 55.667 35 83zM699.998 1399l0.00195312 49.001
c-172 -10.667 -320.333 -78.334 -445 -203.001c-32.667 -32.667 -61.334 -66.667 -86.001 -102l41 -24c16 24 33.333 46.667 52 68l38 -34l21 22c86 86 185.333 140.333 298 163l-10 49c29.333 6 59.666 10 90.999 12zM750 0c-207.333 0 -384.166 73.167 -530.499 219.5
s-219.5 323.166 -219.5 530.499s73.167 384.166 219.5 530.499s323.166 219.5 530.499 219.5s384.166 -73.167 530.499 -219.5s219.5 -323.166 219.5 -530.499s-73.167 -384.166 -219.5 -530.499s-323.166 -219.5 -530.499 -219.5zM454 750c0 -36 5.66699 -70 17 -102
l-188 -67c10 -27.333 22.667 -54.333 38 -81s32.333 -51.334 51 -74.001l153 130c5.33301 -6 11 -12 17 -18c45.333 -45.333 98 -73.333 158 -84l-36 -197c29.333 -4.66699 59.333 -7 90 -7s60.667 2.33301 90 7l-36 197c60 10.667 112.667 38.667 158 84
c6 6 11.667 12 17 18l153 -130c18.667 22.667 35.667 47.334 51 74.001s28 53.667 38 81l-188 67c11.333 32 17 66 17 102s-5.66699 70 -17 102l188 67c-10 27.333 -22.667 54.333 -38 81s-32.333 51.334 -51 74.001l-153 -130c-5.33301 6 -11 12 -17 18
c-45.333 45.333 -98 73.333 -158 84l36 197c-29.333 4.66699 -59.333 7 -90 7s-60.667 -2.33301 -90 -7l36 -197c-60 -10.667 -112.667 -38.667 -158 -84c-6 -6 -11.667 -12 -17 -18l-153 130c-18.667 -22.667 -35.667 -47.334 -51 -74.001s-28 -53.667 -38 -81l188 -67
c-11.333 -32 -17 -66 -17 -102z" />
    <glyph glyph-name="asciitilde" unicode="~" 
d="M0 200v1100c0 133.333 66.667 200 200 200h1100c133.333 0 200 -66.667 200 -200v-1100c0 -133.333 -66.667 -200 -200 -200h-1100c-133.333 0 -200 66.667 -200 200zM1475 201v1099c0 116.667 -58.333 175 -175 175h-1100c-116 0 -174.333 -58.333 -175 -175v-1100
c0.666992 -116.667 59 -175 175 -175h1101c116 0 174 58.667 174 176z" />
    <glyph glyph-name="exclamdown" unicode="&#xa1;" horiz-adv-x="700" 
d="M550 900v-250l-550 400v250zM550 400v-250l-550 400v250z" />
    <glyph glyph-name="cent" unicode="&#xa2;" horiz-adv-x="1550" 
d="M200 1051h-200v199h200v200h200v-200h200v200h200v-200h600v-200l-750 -1050h-250l750 1050h-350v-200h-200v200l-200 1v-201h-200v201z" />
    <glyph glyph-name="sterling" unicode="&#xa3;" horiz-adv-x="1550" 
d="M200 1051h-200v199h200v200h200v-200h200v200h200v-200h600v-200l-750 -1050h-250l750 1050h-350v-200h-200v200l-200 1v-201h-200v201z" />
    <glyph glyph-name="currency" unicode="&#xa4;" horiz-adv-x="1550" 
d="M200 1051h-200v199h200v200h200v-200h200v200h200v-200h600v-200l-750 -1050h-250l750 1050h-350v-200h-200v200l-200 1v-201h-200v201z" />
    <glyph glyph-name="yen" unicode="&#xa5;" horiz-adv-x="1550" 
d="M200 1051h-200v199h200v200h200v-200h200v200h200v-200h600v-200l-750 -1050h-250l750 1050h-350v-200h-200v200l-200 1v-201h-200v201z" />
    <glyph glyph-name="brokenbar" unicode="&#xa6;" 
d="M0 200v1100c0 133.333 66.667 200 200 200h1100c133.333 0 200 -66.667 200 -200v-1100c0 -133.333 -66.667 -200 -200 -200h-1100c-133.333 0 -200 66.667 -200 200zM1475 201v1099c0 116.667 -58.333 175 -175 175h-1100c-116 0 -174.333 -58.333 -175 -175v-1100
c0.666992 -116.667 59 -175 175 -175h1101c116 0 174 58.667 174 176z" />
    <glyph glyph-name="section" unicode="&#xa7;" 
d="M0 200v1100c0 133.333 66.667 200 200 200h1100c133.333 0 200 -66.667 200 -200v-1100c0 -133.333 -66.667 -200 -200 -200h-1100c-133.333 0 -200 66.667 -200 200zM1475 201v1099c0 116.667 -58.333 175 -175 175h-1100c-116 0 -174.333 -58.333 -175 -175v-1100
c0.666992 -116.667 59 -175 175 -175h1101c116 0 174 58.667 174 176z" />
    <glyph glyph-name="dieresis" unicode="&#xa8;" 
d="M0 200v1100c0 133.333 66.667 200 200 200h1100c133.333 0 200 -66.667 200 -200v-1100c0 -133.333 -66.667 -200 -200 -200h-1100c-133.333 0 -200 66.667 -200 200zM1475 201v1099c0 116.667 -58.333 175 -175 175h-1100c-116 0 -174.333 -58.333 -175 -175v-1100
c0.666992 -116.667 59 -175 175 -175h1101c116 0 174 58.667 174 176z" />
    <glyph glyph-name="copyright" unicode="&#xa9;" 
d="M0 200v1100c0 133.333 66.667 200 200 200h1100c133.333 0 200 -66.667 200 -200v-1100c0 -133.333 -66.667 -200 -200 -200h-1100c-133.333 0 -200 66.667 -200 200zM1475 201v1099c0 116.667 -58.333 175 -175 175h-1100c-116 0 -174.333 -58.333 -175 -175v-1100
c0.666992 -116.667 59 -175 175 -175h1101c116 0 174 58.667 174 176z" />
    <glyph glyph-name="ordfeminine" unicode="&#xaa;" 
d="M0 200v1100c0 133.333 66.667 200 200 200h1100c133.333 0 200 -66.667 200 -200v-1100c0 -133.333 -66.667 -200 -200 -200h-1100c-133.333 0 -200 66.667 -200 200zM1475 201v1099c0 116.667 -58.333 175 -175 175h-1100c-116 0 -174.333 -58.333 -175 -175v-1100
c0.666992 -116.667 59 -175 175 -175h1101c116 0 174 58.667 174 176z" />
    <glyph glyph-name="guillemotleft" unicode="&#xab;" 
d="M0 200v1100c0 133.333 66.667 200 200 200h1100c133.333 0 200 -66.667 200 -200v-1100c0 -133.333 -66.667 -200 -200 -200h-1100c-133.333 0 -200 66.667 -200 200zM1475 201v1099c0 116.667 -58.333 175 -175 175h-1100c-116 0 -174.333 -58.333 -175 -175v-1100
c0.666992 -116.667 59 -175 175 -175h1101c116 0 174 58.667 174 176z" />
    <glyph glyph-name="logicalnot" unicode="&#xac;" 
d="M0 200v1100c0 133.333 66.667 200 200 200h1100c133.333 0 200 -66.667 200 -200v-1100c0 -133.333 -66.667 -200 -200 -200h-1100c-133.333 0 -200 66.667 -200 200zM1475 201v1099c0 116.667 -58.333 175 -175 175h-1100c-116 0 -174.333 -58.333 -175 -175v-1100
c0.666992 -116.667 59 -175 175 -175h1101c116 0 174 58.667 174 176z" />
    <glyph glyph-name="registered" unicode="&#xae;" 
d="M0 200v1100c0 133.333 66.667 200 200 200h1100c133.333 0 200 -66.667 200 -200v-1100c0 -133.333 -66.667 -200 -200 -200h-1100c-133.333 0 -200 66.667 -200 200zM1475 201v1099c0 116.667 -58.333 175 -175 175h-1100c-116 0 -174.333 -58.333 -175 -175v-1100
c0.666992 -116.667 59 -175 175 -175h1101c116 0 174 58.667 174 176z" />
    <glyph glyph-name="macron" unicode="&#xaf;" 
d="M0 200v1100c0 133.333 66.667 200 200 200h1100c133.333 0 200 -66.667 200 -200v-1100c0 -133.333 -66.667 -200 -200 -200h-1100c-133.333 0 -200 66.667 -200 200zM1475 201v1099c0 116.667 -58.333 175 -175 175h-1100c-116 0 -174.333 -58.333 -175 -175v-1100
c0.666992 -116.667 59 -175 175 -175h1101c116 0 174 58.667 174 176z" />
    <glyph glyph-name="degree" unicode="&#xb0;" 
d="M0 200v1100c0 133.333 66.667 200 200 200h1100c133.333 0 200 -66.667 200 -200v-1100c0 -133.333 -66.667 -200 -200 -200h-1100c-133.333 0 -200 66.667 -200 200zM1475 201v1099c0 116.667 -58.333 175 -175 175h-1100c-116 0 -174.333 -58.333 -175 -175v-1100
c0.666992 -116.667 59 -175 175 -175h1101c116 0 174 58.667 174 176z" />
    <glyph glyph-name="plusminus" unicode="&#xb1;" 
d="M0 200v1100c0 133.333 66.667 200 200 200h1100c133.333 0 200 -66.667 200 -200v-1100c0 -133.333 -66.667 -200 -200 -200h-1100c-133.333 0 -200 66.667 -200 200zM1475 201v1099c0 116.667 -58.333 175 -175 175h-1100c-116 0 -174.333 -58.333 -175 -175v-1100
c0.666992 -116.667 59 -175 175 -175h1101c116 0 174 58.667 174 176z" />
    <glyph glyph-name="uni00B2" unicode="&#xb2;" 
d="M0 200v1100c0 133.333 66.667 200 200 200h1100c133.333 0 200 -66.667 200 -200v-1100c0 -133.333 -66.667 -200 -200 -200h-1100c-133.333 0 -200 66.667 -200 200zM1475 201v1099c0 116.667 -58.333 175 -175 175h-1100c-116 0 -174.333 -58.333 -175 -175v-1100
c0.666992 -116.667 59 -175 175 -175h1101c116 0 174 58.667 174 176z" />
    <glyph glyph-name="uni00B3" unicode="&#xb3;" 
d="M0 200v1100c0 133.333 66.667 200 200 200h1100c133.333 0 200 -66.667 200 -200v-1100c0 -133.333 -66.667 -200 -200 -200h-1100c-133.333 0 -200 66.667 -200 200zM1475 201v1099c0 116.667 -58.333 175 -175 175h-1100c-116 0 -174.333 -58.333 -175 -175v-1100
c0.666992 -116.667 59 -175 175 -175h1101c116 0 174 58.667 174 176z" />
    <glyph glyph-name="acute" unicode="&#xb4;" 
d="M0 200v1100c0 133.333 66.667 200 200 200h1100c133.333 0 200 -66.667 200 -200v-1100c0 -133.333 -66.667 -200 -200 -200h-1100c-133.333 0 -200 66.667 -200 200zM1475 201v1099c0 116.667 -58.333 175 -175 175h-1100c-116 0 -174.333 -58.333 -175 -175v-1100
c0.666992 -116.667 59 -175 175 -175h1101c116 0 174 58.667 174 176z" />
    <glyph glyph-name="mu" unicode="&#xb5;" 
d="M0 200v1100c0 133.333 66.667 200 200 200h1100c133.333 0 200 -66.667 200 -200v-1100c0 -133.333 -66.667 -200 -200 -200h-1100c-133.333 0 -200 66.667 -200 200zM1475 201v1099c0 116.667 -58.333 175 -175 175h-1100c-116 0 -174.333 -58.333 -175 -175v-1100
c0.666992 -116.667 59 -175 175 -175h1101c116 0 174 58.667 174 176z" />
    <glyph glyph-name="paragraph" unicode="&#xb6;" 
d="M0 200v1100c0 133.333 66.667 200 200 200h1100c133.333 0 200 -66.667 200 -200v-1100c0 -133.333 -66.667 -200 -200 -200h-1100c-133.333 0 -200 66.667 -200 200zM1475 201v1099c0 116.667 -58.333 175 -175 175h-1100c-116 0 -174.333 -58.333 -175 -175v-1100
c0.666992 -116.667 59 -175 175 -175h1101c116 0 174 58.667 174 176z" />
    <glyph glyph-name="periodcentered" unicode="&#xb7;" 
d="M0 200v1100c0 133.333 66.667 200 200 200h1100c133.333 0 200 -66.667 200 -200v-1100c0 -133.333 -66.667 -200 -200 -200h-1100c-133.333 0 -200 66.667 -200 200zM1475 201v1099c0 116.667 -58.333 175 -175 175h-1100c-116 0 -174.333 -58.333 -175 -175v-1100
c0.666992 -116.667 59 -175 175 -175h1101c116 0 174 58.667 174 176z" />
    <glyph glyph-name="periodcentered" unicode="&#x2219;" 
d="M0 200v1100c0 133.333 66.667 200 200 200h1100c133.333 0 200 -66.667 200 -200v-1100c0 -133.333 -66.667 -200 -200 -200h-1100c-133.333 0 -200 66.667 -200 200zM1475 201v1099c0 116.667 -58.333 175 -175 175h-1100c-116 0 -174.333 -58.333 -175 -175v-1100
c0.666992 -116.667 59 -175 175 -175h1101c116 0 174 58.667 174 176z" />
    <glyph glyph-name="cedilla" unicode="&#xb8;" 
d="M0 200v1100c0 133.333 66.667 200 200 200h1100c133.333 0 200 -66.667 200 -200v-1100c0 -133.333 -66.667 -200 -200 -200h-1100c-133.333 0 -200 66.667 -200 200zM1475 201v1099c0 116.667 -58.333 175 -175 175h-1100c-116 0 -174.333 -58.333 -175 -175v-1100
c0.666992 -116.667 59 -175 175 -175h1101c116 0 174 58.667 174 176z" />
    <glyph glyph-name="uni00B9" unicode="&#xb9;" 
d="M0 200v1100c0 133.333 66.667 200 200 200h1100c133.333 0 200 -66.667 200 -200v-1100c0 -133.333 -66.667 -200 -200 -200h-1100c-133.333 0 -200 66.667 -200 200zM1475 201v1099c0 116.667 -58.333 175 -175 175h-1100c-116 0 -174.333 -58.333 -175 -175v-1100
c0.666992 -116.667 59 -175 175 -175h1101c116 0 174 58.667 174 176z" />
    <glyph glyph-name="ordmasculine" unicode="&#xba;" 
d="M0 200v1100c0 133.333 66.667 200 200 200h1100c133.333 0 200 -66.667 200 -200v-1100c0 -133.333 -66.667 -200 -200 -200h-1100c-133.333 0 -200 66.667 -200 200zM1475 201v1099c0 116.667 -58.333 175 -175 175h-1100c-116 0 -174.333 -58.333 -175 -175v-1100
c0.666992 -116.667 59 -175 175 -175h1101c116 0 174 58.667 174 176z" />
    <glyph glyph-name="guillemotright" unicode="&#xbb;" 
d="M0 200v1100c0 133.333 66.667 200 200 200h1100c133.333 0 200 -66.667 200 -200v-1100c0 -133.333 -66.667 -200 -200 -200h-1100c-133.333 0 -200 66.667 -200 200zM1475 201v1099c0 116.667 -58.333 175 -175 175h-1100c-116 0 -174.333 -58.333 -175 -175v-1100
c0.666992 -116.667 59 -175 175 -175h1101c116 0 174 58.667 174 176z" />
    <glyph glyph-name="onequarter" unicode="&#xbc;" 
d="M0 200v1100c0 133.333 66.667 200 200 200h1100c133.333 0 200 -66.667 200 -200v-1100c0 -133.333 -66.667 -200 -200 -200h-1100c-133.333 0 -200 66.667 -200 200zM1475 201v1099c0 116.667 -58.333 175 -175 175h-1100c-116 0 -174.333 -58.333 -175 -175v-1100
c0.666992 -116.667 59 -175 175 -175h1101c116 0 174 58.667 174 176z" />
    <glyph glyph-name="onehalf" unicode="&#xbd;" 
d="M0 200v1100c0 133.333 66.667 200 200 200h1100c133.333 0 200 -66.667 200 -200v-1100c0 -133.333 -66.667 -200 -200 -200h-1100c-133.333 0 -200 66.667 -200 200zM1475 201v1099c0 116.667 -58.333 175 -175 175h-1100c-116 0 -174.333 -58.333 -175 -175v-1100
c0.666992 -116.667 59 -175 175 -175h1101c116 0 174 58.667 174 176z" />
    <glyph glyph-name="threequarters" unicode="&#xbe;" 
d="M0 200v1100c0 133.333 66.667 200 200 200h1100c133.333 0 200 -66.667 200 -200v-1100c0 -133.333 -66.667 -200 -200 -200h-1100c-133.333 0 -200 66.667 -200 200zM1475 201v1099c0 116.667 -58.333 175 -175 175h-1100c-116 0 -174.333 -58.333 -175 -175v-1100
c0.666992 -116.667 59 -175 175 -175h1101c116 0 174 58.667 174 176z" />
    <glyph glyph-name="questiondown" unicode="&#xbf;" horiz-adv-x="700" 
d="M350 0h-100c-166.667 33.333 -250 200 -250 500v450c-0 300 83.333 466.667 250 500h300v-450h-200v250c-100 0 -150 -100 -150 -300v-450c0 -200 50 -300 150 -300v-200z" />
    <glyph glyph-name="Agrave" unicode="&#xc0;" 
d="M0 200v1100c0 133.333 66.667 200 200 200h1100c133.333 0 200 -66.667 200 -200v-1100c0 -133.333 -66.667 -200 -200 -200h-1100c-133.333 0 -200 66.667 -200 200zM1475 201v1099c0 116.667 -58.333 175 -175 175h-1100c-116 0 -174.333 -58.333 -175 -175v-1100
c0.666992 -116.667 59 -175 175 -175h1101c116 0 174 58.667 174 176z" />
    <glyph glyph-name="Aacute" unicode="&#xc1;" 
d="M0 200v1100c0 133.333 66.667 200 200 200h1100c133.333 0 200 -66.667 200 -200v-1100c0 -133.333 -66.667 -200 -200 -200h-1100c-133.333 0 -200 66.667 -200 200zM1475 201v1099c0 116.667 -58.333 175 -175 175h-1100c-116 0 -174.333 -58.333 -175 -175v-1100
c0.666992 -116.667 59 -175 175 -175h1101c116 0 174 58.667 174 176z" />
    <glyph glyph-name="Acircumflex" unicode="&#xc2;" 
d="M0 200v1100c0 133.333 66.667 200 200 200h1100c133.333 0 200 -66.667 200 -200v-1100c0 -133.333 -66.667 -200 -200 -200h-1100c-133.333 0 -200 66.667 -200 200zM1475 201v1099c0 116.667 -58.333 175 -175 175h-1100c-116 0 -174.333 -58.333 -175 -175v-1100
c0.666992 -116.667 59 -175 175 -175h1101c116 0 174 58.667 174 176z" />
    <glyph glyph-name="Atilde" unicode="&#xc3;" 
d="M0 200v1100c0 133.333 66.667 200 200 200h1100c133.333 0 200 -66.667 200 -200v-1100c0 -133.333 -66.667 -200 -200 -200h-1100c-133.333 0 -200 66.667 -200 200zM1475 201v1099c0 116.667 -58.333 175 -175 175h-1100c-116 0 -174.333 -58.333 -175 -175v-1100
c0.666992 -116.667 59 -175 175 -175h1101c116 0 174 58.667 174 176z" />
    <glyph glyph-name="Adieresis" unicode="&#xc4;" 
d="M0 200v1100c0 133.333 66.667 200 200 200h1100c133.333 0 200 -66.667 200 -200v-1100c0 -133.333 -66.667 -200 -200 -200h-1100c-133.333 0 -200 66.667 -200 200zM1475 201v1099c0 116.667 -58.333 175 -175 175h-1100c-116 0 -174.333 -58.333 -175 -175v-1100
c0.666992 -116.667 59 -175 175 -175h1101c116 0 174 58.667 174 176z" />
    <glyph glyph-name="Aring" unicode="&#xc5;" horiz-adv-x="1950" 
d="M1600 950c0 200 -50 300 -150 300h-1100c-100 0 -150 -100 -150 -300v-125h1000v-200h-1000v-125c0 -200 50 -300 150 -300h1100c100 0 150 100 150 300v125h200v-125c0 -300 -83.333 -466.667 -250 -500h-1300c-166.667 33.333 -250 200 -250 500v450
c-0 300 83.333 466.667 250 500h1300c166.667 -33.333 250 -200 250 -500v-125h-200v125z" />
    <glyph glyph-name="AE" unicode="&#xc6;" horiz-adv-x="1950" 
d="M1600 950c0 200 -50 300 -150 300h-1100c-100 0 -150 -100 -150 -300v-125h1000v-200h-1000v-125c0 -200 50 -300 150 -300h1100c100 0 150 100 150 300v125h200v-125c0 -300 -83.333 -466.667 -250 -500h-1300c-166.667 33.333 -250 200 -250 500v450
c-0 300 83.333 466.667 250 500h1300c166.667 -33.333 250 -200 250 -500v-125h-200v125z" />
    <glyph glyph-name="Ccedilla" unicode="&#xc7;" horiz-adv-x="2150" 
d="M1950 1450v-200h-1140l-470 -1050h1609l1 -200h-1950l650 1450h1300z" />
    <glyph glyph-name="Egrave" unicode="&#xc8;" 
d="M0 200v1100c0 133.333 66.667 200 200 200h1100c133.333 0 200 -66.667 200 -200v-1100c0 -133.333 -66.667 -200 -200 -200h-1100c-133.333 0 -200 66.667 -200 200zM1475 201v1099c0 116.667 -58.333 175 -175 175h-1100c-116 0 -174.333 -58.333 -175 -175v-1100
c0.666992 -116.667 59 -175 175 -175h1101c116 0 174 58.667 174 176z" />
    <glyph glyph-name="Eacute" unicode="&#xc9;" 
d="M0 200v1100c0 133.333 66.667 200 200 200h1100c133.333 0 200 -66.667 200 -200v-1100c0 -133.333 -66.667 -200 -200 -200h-1100c-133.333 0 -200 66.667 -200 200zM1475 201v1099c0 116.667 -58.333 175 -175 175h-1100c-116 0 -174.333 -58.333 -175 -175v-1100
c0.666992 -116.667 59 -175 175 -175h1101c116 0 174 58.667 174 176z" />
    <glyph glyph-name="Ecircumflex" unicode="&#xca;" 
d="M0 200v1100c0 133.333 66.667 200 200 200h1100c133.333 0 200 -66.667 200 -200v-1100c0 -133.333 -66.667 -200 -200 -200h-1100c-133.333 0 -200 66.667 -200 200zM1475 201v1099c0 116.667 -58.333 175 -175 175h-1100c-116 0 -174.333 -58.333 -175 -175v-1100
c0.666992 -116.667 59 -175 175 -175h1101c116 0 174 58.667 174 176z" />
    <glyph glyph-name="Edieresis" unicode="&#xcb;" horiz-adv-x="1950" 
d="M1700 0h-1600v250h1600v-250zM700 1250l-0.000976562 -50c0 -433.333 -200 -666.666 -600 -699.999h-100v200c333.333 0 500 166.667 500 500v250h800v-250c0.666992 -333.333 167.334 -500 500.001 -500l-1 -200h-99c-399.333 33.333 -599.333 266.666 -600 699.999v50
h-400z" />
    <glyph glyph-name="Igrave" unicode="&#xcc;" 
d="M0 200v1100c0 133.333 66.667 200 200 200h1100c133.333 0 200 -66.667 200 -200v-1100c0 -133.333 -66.667 -200 -200 -200h-1100c-133.333 0 -200 66.667 -200 200zM1475 201v1099c0 116.667 -58.333 175 -175 175h-1100c-116 0 -174.333 -58.333 -175 -175v-1100
c0.666992 -116.667 59 -175 175 -175h1101c116 0 174 58.667 174 176z" />
    <glyph glyph-name="Iacute" unicode="&#xcd;" 
d="M0 200v1100c0 133.333 66.667 200 200 200h1100c133.333 0 200 -66.667 200 -200v-1100c0 -133.333 -66.667 -200 -200 -200h-1100c-133.333 0 -200 66.667 -200 200zM1475 201v1099c0 116.667 -58.333 175 -175 175h-1100c-116 0 -174.333 -58.333 -175 -175v-1100
c0.666992 -116.667 59 -175 175 -175h1101c116 0 174 58.667 174 176z" />
    <glyph glyph-name="Icircumflex" unicode="&#xce;" 
d="M0 200v1100c0 133.333 66.667 200 200 200h1100c133.333 0 200 -66.667 200 -200v-1100c0 -133.333 -66.667 -200 -200 -200h-1100c-133.333 0 -200 66.667 -200 200zM1475 201v1099c0 116.667 -58.333 175 -175 175h-1100c-116 0 -174.333 -58.333 -175 -175v-1100
c0.666992 -116.667 59 -175 175 -175h1101c116 0 174 58.667 174 176z" />
    <glyph glyph-name="Idieresis" unicode="&#xcf;" 
d="M0 200v1100c0 133.333 66.667 200 200 200h1100c133.333 0 200 -66.667 200 -200v-1100c0 -133.333 -66.667 -200 -200 -200h-1100c-133.333 0 -200 66.667 -200 200zM1475 201v1099c0 116.667 -58.333 175 -175 175h-1100c-116 0 -174.333 -58.333 -175 -175v-1100
c0.666992 -116.667 59 -175 175 -175h1101c116 0 174 58.667 174 176z" />
    <glyph glyph-name="Eth" unicode="&#xd0;" horiz-adv-x="2050" 
d="M200 500c0 -200 50 -300 150 -300h1150c100 0 150 100 150 300v125h-850v200h850v125c0 200 -50 300 -150 300h-1150c-100 0 -150 -100 -150 -300v-450zM0 950c0 300 83.333 466.667 250 500h1350c166.667 -33.333 250 -200 250 -500v-450
c0 -300 -83.333 -466.667 -250 -500h-1350c-166.667 33.333 -250 200 -250 500v450z" />
    <glyph glyph-name="Ntilde" unicode="&#xd1;" horiz-adv-x="1550" 
d="M200 1250v-1250h-200v1450h1200v-200h-400l600 -1250h-225l-600 1250h-375z" />
    <glyph glyph-name="Ograve" unicode="&#xd2;" 
d="M0 200v1100c0 133.333 66.667 200 200 200h1100c133.333 0 200 -66.667 200 -200v-1100c0 -133.333 -66.667 -200 -200 -200h-1100c-133.333 0 -200 66.667 -200 200zM1475 201v1099c0 116.667 -58.333 175 -175 175h-1100c-116 0 -174.333 -58.333 -175 -175v-1100
c0.666992 -116.667 59 -175 175 -175h1101c116 0 174 58.667 174 176z" />
    <glyph glyph-name="Oacute" unicode="&#xd3;" 
d="M0 200v1100c0 133.333 66.667 200 200 200h1100c133.333 0 200 -66.667 200 -200v-1100c0 -133.333 -66.667 -200 -200 -200h-1100c-133.333 0 -200 66.667 -200 200zM1475 201v1099c0 116.667 -58.333 175 -175 175h-1100c-116 0 -174.333 -58.333 -175 -175v-1100
c0.666992 -116.667 59 -175 175 -175h1101c116 0 174 58.667 174 176z" />
    <glyph glyph-name="Ocircumflex" unicode="&#xd4;" 
d="M0 200v1100c0 133.333 66.667 200 200 200h1100c133.333 0 200 -66.667 200 -200v-1100c0 -133.333 -66.667 -200 -200 -200h-1100c-133.333 0 -200 66.667 -200 200zM1475 201v1099c0 116.667 -58.333 175 -175 175h-1100c-116 0 -174.333 -58.333 -175 -175v-1100
c0.666992 -116.667 59 -175 175 -175h1101c116 0 174 58.667 174 176z" />
    <glyph glyph-name="Otilde" unicode="&#xd5;" 
d="M0 200v1100c0 133.333 66.667 200 200 200h1100c133.333 0 200 -66.667 200 -200v-1100c0 -133.333 -66.667 -200 -200 -200h-1100c-133.333 0 -200 66.667 -200 200zM1475 201v1099c0 116.667 -58.333 175 -175 175h-1100c-116 0 -174.333 -58.333 -175 -175v-1100
c0.666992 -116.667 59 -175 175 -175h1101c116 0 174 58.667 174 176z" />
    <glyph glyph-name="Odieresis" unicode="&#xd6;" 
d="M0 200v1100c0 133.333 66.667 200 200 200h1100c133.333 0 200 -66.667 200 -200v-1100c0 -133.333 -66.667 -200 -200 -200h-1100c-133.333 0 -200 66.667 -200 200zM1475 201v1099c0 116.667 -58.333 175 -175 175h-1100c-116 0 -174.333 -58.333 -175 -175v-1100
c0.666992 -116.667 59 -175 175 -175h1101c116 0 174 58.667 174 176z" />
    <glyph glyph-name="multiply" unicode="&#xd7;" 
d="M0 200v1100c0 133.333 66.667 200 200 200h1100c133.333 0 200 -66.667 200 -200v-1100c0 -133.333 -66.667 -200 -200 -200h-1100c-133.333 0 -200 66.667 -200 200zM1475 201v1099c0 116.667 -58.333 175 -175 175h-1100c-116 0 -174.333 -58.333 -175 -175v-1100
c0.666992 -116.667 59 -175 175 -175h1101c116 0 174 58.667 174 176z" />
    <glyph glyph-name="Oslash" unicode="&#xd8;" 
d="M1150 200c100 0 150 100 150 300v450c0 200 -50 300 -150 300h-300v200h400c166.667 -33.333 250 -200 250 -500v-450c0 -300 -83.333 -466.667 -250 -500h-400v200h300zM350 1250c-100 0 -150 -100 -150 -300v-450c0 -200 50 -300 150 -300h300v-200h-400
c-166.667 33.333 -250 200 -250 500v450c-0 300 83.333 466.667 250 500h400v-200h-300z" />
    <glyph glyph-name="Ugrave" unicode="&#xd9;" 
d="M0 200v1100c0 133.333 66.667 200 200 200h1100c133.333 0 200 -66.667 200 -200v-1100c0 -133.333 -66.667 -200 -200 -200h-1100c-133.333 0 -200 66.667 -200 200zM1475 201v1099c0 116.667 -58.333 175 -175 175h-1100c-116 0 -174.333 -58.333 -175 -175v-1100
c0.666992 -116.667 59 -175 175 -175h1101c116 0 174 58.667 174 176z" />
    <glyph glyph-name="Uacute" unicode="&#xda;" 
d="M0 200v1100c0 133.333 66.667 200 200 200h1100c133.333 0 200 -66.667 200 -200v-1100c0 -133.333 -66.667 -200 -200 -200h-1100c-133.333 0 -200 66.667 -200 200zM1475 201v1099c0 116.667 -58.333 175 -175 175h-1100c-116 0 -174.333 -58.333 -175 -175v-1100
c0.666992 -116.667 59 -175 175 -175h1101c116 0 174 58.667 174 176z" />
    <glyph glyph-name="Ucircumflex" unicode="&#xdb;" 
d="M0 200v1100c0 133.333 66.667 200 200 200h1100c133.333 0 200 -66.667 200 -200v-1100c0 -133.333 -66.667 -200 -200 -200h-1100c-133.333 0 -200 66.667 -200 200zM1475 201v1099c0 116.667 -58.333 175 -175 175h-1100c-116 0 -174.333 -58.333 -175 -175v-1100
c0.666992 -116.667 59 -175 175 -175h1101c116 0 174 58.667 174 176z" />
    <glyph glyph-name="Udieresis" unicode="&#xdc;" 
d="M0 200v1100c0 133.333 66.667 200 200 200h1100c133.333 0 200 -66.667 200 -200v-1100c0 -133.333 -66.667 -200 -200 -200h-1100c-133.333 0 -200 66.667 -200 200zM1475 201v1099c0 116.667 -58.333 175 -175 175h-1100c-116 0 -174.333 -58.333 -175 -175v-1100
c0.666992 -116.667 59 -175 175 -175h1101c116 0 174 58.667 174 176z" />
    <glyph glyph-name="Yacute" unicode="&#xdd;" 
d="M0 200v1100c0 133.333 66.667 200 200 200h1100c133.333 0 200 -66.667 200 -200v-1100c0 -133.333 -66.667 -200 -200 -200h-1100c-133.333 0 -200 66.667 -200 200zM1475 201v1099c0 116.667 -58.333 175 -175 175h-1100c-116 0 -174.333 -58.333 -175 -175v-1100
c0.666992 -116.667 59 -175 175 -175h1101c116 0 174 58.667 174 176z" />
    <glyph glyph-name="Thorn" unicode="&#xde;" horiz-adv-x="1700" 
d="M718 625h-518v-625h-200v1450h200v-625h575l775 -825h-250z" />
    <glyph glyph-name="germandbls" unicode="&#xdf;" horiz-adv-x="2250" 
d="M600 1250v-200h-200v400h1650l-650 -1450h-1000v400h200v-200h640l470 1050h-1110zM200 400v-400h-200v400h200zM200 1450v-400h-200v400h200z" />
    <glyph glyph-name="agrave" unicode="&#xe0;" 
d="M0 200v1100c0 133.333 66.667 200 200 200h1100c133.333 0 200 -66.667 200 -200v-1100c0 -133.333 -66.667 -200 -200 -200h-1100c-133.333 0 -200 66.667 -200 200zM1475 201v1099c0 116.667 -58.333 175 -175 175h-1100c-116 0 -174.333 -58.333 -175 -175v-1100
c0.666992 -116.667 59 -175 175 -175h1101c116 0 174 58.667 174 176z" />
    <glyph glyph-name="aacute" unicode="&#xe1;" 
d="M0 200v1100c0 133.333 66.667 200 200 200h1100c133.333 0 200 -66.667 200 -200v-1100c0 -133.333 -66.667 -200 -200 -200h-1100c-133.333 0 -200 66.667 -200 200zM1475 201v1099c0 116.667 -58.333 175 -175 175h-1100c-116 0 -174.333 -58.333 -175 -175v-1100
c0.666992 -116.667 59 -175 175 -175h1101c116 0 174 58.667 174 176z" />
    <glyph glyph-name="acircumflex" unicode="&#xe2;" 
d="M0 200v1100c0 133.333 66.667 200 200 200h1100c133.333 0 200 -66.667 200 -200v-1100c0 -133.333 -66.667 -200 -200 -200h-1100c-133.333 0 -200 66.667 -200 200zM1475 201v1099c0 116.667 -58.333 175 -175 175h-1100c-116 0 -174.333 -58.333 -175 -175v-1100
c0.666992 -116.667 59 -175 175 -175h1101c116 0 174 58.667 174 176z" />
    <glyph glyph-name="atilde" unicode="&#xe3;" 
d="M0 200v1100c0 133.333 66.667 200 200 200h1100c133.333 0 200 -66.667 200 -200v-1100c0 -133.333 -66.667 -200 -200 -200h-1100c-133.333 0 -200 66.667 -200 200zM1475 201v1099c0 116.667 -58.333 175 -175 175h-1100c-116 0 -174.333 -58.333 -175 -175v-1100
c0.666992 -116.667 59 -175 175 -175h1101c116 0 174 58.667 174 176z" />
    <glyph glyph-name="adieresis" unicode="&#xe4;" 
d="M0 200v1100c0 133.333 66.667 200 200 200h1100c133.333 0 200 -66.667 200 -200v-1100c0 -133.333 -66.667 -200 -200 -200h-1100c-133.333 0 -200 66.667 -200 200zM1475 201v1099c0 116.667 -58.333 175 -175 175h-1100c-116 0 -174.333 -58.333 -175 -175v-1100
c0.666992 -116.667 59 -175 175 -175h1101c116 0 174 58.667 174 176z" />
    <glyph glyph-name="aring" unicode="&#xe5;" horiz-adv-x="1950" 
d="M200 825h-200v125c-0 300 83.333 466.667 250 500h1300c166.667 -33.333 250 -200 250 -500v-450c0 -300 -83.333 -466.667 -250 -500h-1300c-166.667 33.333 -250 200 -250 500v125h200v-125c0 -200 50 -300 150 -300h1100c100 0 150 100 150 300v125h-1000v200h1000
v125c0 200 -50 300 -150 300h-1100c-100 0 -150 -100 -150 -300v-125z" />
    <glyph glyph-name="ae" unicode="&#xe6;" horiz-adv-x="1950" 
d="M200 825h-200v125c-0 300 83.333 466.667 250 500h1300c166.667 -33.333 250 -200 250 -500v-450c0 -300 -83.333 -466.667 -250 -500h-1300c-166.667 33.333 -250 200 -250 500v125h200v-125c0 -200 50 -300 150 -300h1100c100 0 150 100 150 300v125h-1000v200h1000
v125c0 200 -50 300 -150 300h-1100c-100 0 -150 -100 -150 -300v-125z" />
    <glyph glyph-name="ccedilla" unicode="&#xe7;" horiz-adv-x="2150" 
d="M1300 1450l650 -1450h-1950l1 200h1609l-470 1050h-1140v200h1300z" />
    <glyph glyph-name="egrave" unicode="&#xe8;" 
d="M0 200v1100c0 133.333 66.667 200 200 200h1100c133.333 0 200 -66.667 200 -200v-1100c0 -133.333 -66.667 -200 -200 -200h-1100c-133.333 0 -200 66.667 -200 200zM1475 201v1099c0 116.667 -58.333 175 -175 175h-1100c-116 0 -174.333 -58.333 -175 -175v-1100
c0.666992 -116.667 59 -175 175 -175h1101c116 0 174 58.667 174 176z" />
    <glyph glyph-name="eacute" unicode="&#xe9;" 
d="M0 200v1100c0 133.333 66.667 200 200 200h1100c133.333 0 200 -66.667 200 -200v-1100c0 -133.333 -66.667 -200 -200 -200h-1100c-133.333 0 -200 66.667 -200 200zM1475 201v1099c0 116.667 -58.333 175 -175 175h-1100c-116 0 -174.333 -58.333 -175 -175v-1100
c0.666992 -116.667 59 -175 175 -175h1101c116 0 174 58.667 174 176z" />
    <glyph glyph-name="ecircumflex" unicode="&#xea;" 
d="M0 200v1100c0 133.333 66.667 200 200 200h1100c133.333 0 200 -66.667 200 -200v-1100c0 -133.333 -66.667 -200 -200 -200h-1100c-133.333 0 -200 66.667 -200 200zM1475 201v1099c0 116.667 -58.333 175 -175 175h-1100c-116 0 -174.333 -58.333 -175 -175v-1100
c0.666992 -116.667 59 -175 175 -175h1101c116 0 174 58.667 174 176z" />
    <glyph glyph-name="edieresis" unicode="&#xeb;" horiz-adv-x="1950" 
d="M100 250h1600v-250h-1600v250zM700 1250l-0.000976562 -50c-0.666992 -433.333 -200.667 -666.666 -600 -699.999h-99l-1 200c332.667 0 499.334 166.667 500.001 500v250h800v-250c0 -333.333 166.667 -500 500 -500v-200h-100c-400 33.333 -600 266.666 -600 699.999
v50h-400z" />
    <glyph glyph-name="igrave" unicode="&#xec;" 
d="M0 200v1100c0 133.333 66.667 200 200 200h1100c133.333 0 200 -66.667 200 -200v-1100c0 -133.333 -66.667 -200 -200 -200h-1100c-133.333 0 -200 66.667 -200 200zM1475 201v1099c0 116.667 -58.333 175 -175 175h-1100c-116 0 -174.333 -58.333 -175 -175v-1100
c0.666992 -116.667 59 -175 175 -175h1101c116 0 174 58.667 174 176z" />
    <glyph glyph-name="iacute" unicode="&#xed;" 
d="M0 200v1100c0 133.333 66.667 200 200 200h1100c133.333 0 200 -66.667 200 -200v-1100c0 -133.333 -66.667 -200 -200 -200h-1100c-133.333 0 -200 66.667 -200 200zM1475 201v1099c0 116.667 -58.333 175 -175 175h-1100c-116 0 -174.333 -58.333 -175 -175v-1100
c0.666992 -116.667 59 -175 175 -175h1101c116 0 174 58.667 174 176z" />
    <glyph glyph-name="icircumflex" unicode="&#xee;" 
d="M0 200v1100c0 133.333 66.667 200 200 200h1100c133.333 0 200 -66.667 200 -200v-1100c0 -133.333 -66.667 -200 -200 -200h-1100c-133.333 0 -200 66.667 -200 200zM1475 201v1099c0 116.667 -58.333 175 -175 175h-1100c-116 0 -174.333 -58.333 -175 -175v-1100
c0.666992 -116.667 59 -175 175 -175h1101c116 0 174 58.667 174 176z" />
    <glyph glyph-name="idieresis" unicode="&#xef;" 
d="M0 200v1100c0 133.333 66.667 200 200 200h1100c133.333 0 200 -66.667 200 -200v-1100c0 -133.333 -66.667 -200 -200 -200h-1100c-133.333 0 -200 66.667 -200 200zM1475 201v1099c0 116.667 -58.333 175 -175 175h-1100c-116 0 -174.333 -58.333 -175 -175v-1100
c0.666992 -116.667 59 -175 175 -175h1101c116 0 174 58.667 174 176z" />
    <glyph glyph-name="eth" unicode="&#xf0;" horiz-adv-x="2050" 
d="M1650 950c0 200 -50 300 -150 300h-1150c-100 0 -150 -100 -150 -300v-125h850v-200h-850v-125c0 -200 50 -300 150 -300h1150c100 0 150 100 150 300v450zM1850 500c0 -300 -83.333 -466.667 -250 -500h-1350c-166.667 33.333 -250 200 -250 500v450
c-0 300 83.333 466.667 250 500h1350c166.667 -33.333 250 -200 250 -500v-450z" />
    <glyph glyph-name="ntilde" unicode="&#xf1;" horiz-adv-x="1550" 
d="M825 1250l-600 -1250h-225l600 1250h-400v200h1200v-1450h-200v1250h-375z" />
    <glyph glyph-name="ograve" unicode="&#xf2;" 
d="M0 200v1100c0 133.333 66.667 200 200 200h1100c133.333 0 200 -66.667 200 -200v-1100c0 -133.333 -66.667 -200 -200 -200h-1100c-133.333 0 -200 66.667 -200 200zM1475 201v1099c0 116.667 -58.333 175 -175 175h-1100c-116 0 -174.333 -58.333 -175 -175v-1100
c0.666992 -116.667 59 -175 175 -175h1101c116 0 174 58.667 174 176z" />
    <glyph glyph-name="oacute" unicode="&#xf3;" 
d="M0 200v1100c0 133.333 66.667 200 200 200h1100c133.333 0 200 -66.667 200 -200v-1100c0 -133.333 -66.667 -200 -200 -200h-1100c-133.333 0 -200 66.667 -200 200zM1475 201v1099c0 116.667 -58.333 175 -175 175h-1100c-116 0 -174.333 -58.333 -175 -175v-1100
c0.666992 -116.667 59 -175 175 -175h1101c116 0 174 58.667 174 176z" />
    <glyph glyph-name="ocircumflex" unicode="&#xf4;" 
d="M0 200v1100c0 133.333 66.667 200 200 200h1100c133.333 0 200 -66.667 200 -200v-1100c0 -133.333 -66.667 -200 -200 -200h-1100c-133.333 0 -200 66.667 -200 200zM1475 201v1099c0 116.667 -58.333 175 -175 175h-1100c-116 0 -174.333 -58.333 -175 -175v-1100
c0.666992 -116.667 59 -175 175 -175h1101c116 0 174 58.667 174 176z" />
    <glyph glyph-name="otilde" unicode="&#xf5;" 
d="M0 200v1100c0 133.333 66.667 200 200 200h1100c133.333 0 200 -66.667 200 -200v-1100c0 -133.333 -66.667 -200 -200 -200h-1100c-133.333 0 -200 66.667 -200 200zM1475 201v1099c0 116.667 -58.333 175 -175 175h-1100c-116 0 -174.333 -58.333 -175 -175v-1100
c0.666992 -116.667 59 -175 175 -175h1101c116 0 174 58.667 174 176z" />
    <glyph glyph-name="odieresis" unicode="&#xf6;" 
d="M0 200v1100c0 133.333 66.667 200 200 200h1100c133.333 0 200 -66.667 200 -200v-1100c0 -133.333 -66.667 -200 -200 -200h-1100c-133.333 0 -200 66.667 -200 200zM1475 201v1099c0 116.667 -58.333 175 -175 175h-1100c-116 0 -174.333 -58.333 -175 -175v-1100
c0.666992 -116.667 59 -175 175 -175h1101c116 0 174 58.667 174 176z" />
    <glyph glyph-name="divide" unicode="&#xf7;" 
d="M0 200v1100c0 133.333 66.667 200 200 200h1100c133.333 0 200 -66.667 200 -200v-1100c0 -133.333 -66.667 -200 -200 -200h-1100c-133.333 0 -200 66.667 -200 200zM1475 201v1099c0 116.667 -58.333 175 -175 175h-1100c-116 0 -174.333 -58.333 -175 -175v-1100
c0.666992 -116.667 59 -175 175 -175h1101c116 0 174 58.667 174 176z" />
    <glyph glyph-name="oslash" unicode="&#xf8;" 
d="M650 200v-200h-400c-166.667 33.333 -250 200 -250 500v450c-0 300 83.333 466.667 250 500h400v-200h-300c-100 0 -150 -100 -150 -300v-450c0 -200 50 -300 150 -300h300zM850 1250v200h400c166.667 -33.333 250 -200 250 -500v-450c0 -300 -83.333 -466.667 -250 -500
h-400v200h300c100 0 150 100 150 300v450c0 200 -50 300 -150 300h-300z" />
    <glyph glyph-name="ugrave" unicode="&#xf9;" 
d="M0 200v1100c0 133.333 66.667 200 200 200h1100c133.333 0 200 -66.667 200 -200v-1100c0 -133.333 -66.667 -200 -200 -200h-1100c-133.333 0 -200 66.667 -200 200zM1475 201v1099c0 116.667 -58.333 175 -175 175h-1100c-116 0 -174.333 -58.333 -175 -175v-1100
c0.666992 -116.667 59 -175 175 -175h1101c116 0 174 58.667 174 176z" />
    <glyph glyph-name="uacute" unicode="&#xfa;" 
d="M0 200v1100c0 133.333 66.667 200 200 200h1100c133.333 0 200 -66.667 200 -200v-1100c0 -133.333 -66.667 -200 -200 -200h-1100c-133.333 0 -200 66.667 -200 200zM1475 201v1099c0 116.667 -58.333 175 -175 175h-1100c-116 0 -174.333 -58.333 -175 -175v-1100
c0.666992 -116.667 59 -175 175 -175h1101c116 0 174 58.667 174 176z" />
    <glyph glyph-name="ucircumflex" unicode="&#xfb;" 
d="M0 200v1100c0 133.333 66.667 200 200 200h1100c133.333 0 200 -66.667 200 -200v-1100c0 -133.333 -66.667 -200 -200 -200h-1100c-133.333 0 -200 66.667 -200 200zM1475 201v1099c0 116.667 -58.333 175 -175 175h-1100c-116 0 -174.333 -58.333 -175 -175v-1100
c0.666992 -116.667 59 -175 175 -175h1101c116 0 174 58.667 174 176z" />
    <glyph glyph-name="udieresis" unicode="&#xfc;" 
d="M0 200v1100c0 133.333 66.667 200 200 200h1100c133.333 0 200 -66.667 200 -200v-1100c0 -133.333 -66.667 -200 -200 -200h-1100c-133.333 0 -200 66.667 -200 200zM1475 201v1099c0 116.667 -58.333 175 -175 175h-1100c-116 0 -174.333 -58.333 -175 -175v-1100
c0.666992 -116.667 59 -175 175 -175h1101c116 0 174 58.667 174 176z" />
    <glyph glyph-name="yacute" unicode="&#xfd;" 
d="M0 200v1100c0 133.333 66.667 200 200 200h1100c133.333 0 200 -66.667 200 -200v-1100c0 -133.333 -66.667 -200 -200 -200h-1100c-133.333 0 -200 66.667 -200 200zM1475 201v1099c0 116.667 -58.333 175 -175 175h-1100c-116 0 -174.333 -58.333 -175 -175v-1100
c0.666992 -116.667 59 -175 175 -175h1101c116 0 174 58.667 174 176z" />
    <glyph glyph-name="thorn" unicode="&#xfe;" horiz-adv-x="1700" 
d="M250 0h-250l775 825h575v625h200v-1450h-200v625h-518z" />
    <glyph glyph-name="ydieresis" unicode="&#xff;" 
d="M0 200v1100c0 133.333 66.667 200 200 200h1100c133.333 0 200 -66.667 200 -200v-1100c0 -133.333 -66.667 -200 -200 -200h-1100c-133.333 0 -200 66.667 -200 200zM1475 201v1099c0 116.667 -58.333 175 -175 175h-1100c-116 0 -174.333 -58.333 -175 -175v-1100
c0.666992 -116.667 59 -175 175 -175h1101c116 0 174 58.667 174 176z" />
    <glyph glyph-name="dotlessi" unicode="&#x131;" 
d="M0 200v1100c0 133.333 66.667 200 200 200h1100c133.333 0 200 -66.667 200 -200v-1100c0 -133.333 -66.667 -200 -200 -200h-1100c-133.333 0 -200 66.667 -200 200zM1475 201v1099c0 116.667 -58.333 175 -175 175h-1100c-116 0 -174.333 -58.333 -175 -175v-1100
c0.666992 -116.667 59 -175 175 -175h1101c116 0 174 58.667 174 176z" />
    <glyph glyph-name="circumflex" unicode="&#x2c6;" 
d="M0 200v1100c0 133.333 66.667 200 200 200h1100c133.333 0 200 -66.667 200 -200v-1100c0 -133.333 -66.667 -200 -200 -200h-1100c-133.333 0 -200 66.667 -200 200zM1475 201v1099c0 116.667 -58.333 175 -175 175h-1100c-116 0 -174.333 -58.333 -175 -175v-1100
c0.666992 -116.667 59 -175 175 -175h1101c116 0 174 58.667 174 176z" />
    <glyph glyph-name="caron" unicode="&#x2c7;" 
d="M0 200v1100c0 133.333 66.667 200 200 200h1100c133.333 0 200 -66.667 200 -200v-1100c0 -133.333 -66.667 -200 -200 -200h-1100c-133.333 0 -200 66.667 -200 200zM1475 201v1099c0 116.667 -58.333 175 -175 175h-1100c-116 0 -174.333 -58.333 -175 -175v-1100
c0.666992 -116.667 59 -175 175 -175h1101c116 0 174 58.667 174 176z" />
    <glyph glyph-name="uni02C9" unicode="&#x2c9;" 
d="M0 200v1100c0 133.333 66.667 200 200 200h1100c133.333 0 200 -66.667 200 -200v-1100c0 -133.333 -66.667 -200 -200 -200h-1100c-133.333 0 -200 66.667 -200 200zM1475 201v1099c0 116.667 -58.333 175 -175 175h-1100c-116 0 -174.333 -58.333 -175 -175v-1100
c0.666992 -116.667 59 -175 175 -175h1101c116 0 174 58.667 174 176z" />
    <glyph glyph-name="breve" unicode="&#x2d8;" 
d="M0 200v1100c0 133.333 66.667 200 200 200h1100c133.333 0 200 -66.667 200 -200v-1100c0 -133.333 -66.667 -200 -200 -200h-1100c-133.333 0 -200 66.667 -200 200zM1475 201v1099c0 116.667 -58.333 175 -175 175h-1100c-116 0 -174.333 -58.333 -175 -175v-1100
c0.666992 -116.667 59 -175 175 -175h1101c116 0 174 58.667 174 176z" />
    <glyph glyph-name="dotaccent" unicode="&#x2d9;" 
d="M0 200v1100c0 133.333 66.667 200 200 200h1100c133.333 0 200 -66.667 200 -200v-1100c0 -133.333 -66.667 -200 -200 -200h-1100c-133.333 0 -200 66.667 -200 200zM1475 201v1099c0 116.667 -58.333 175 -175 175h-1100c-116 0 -174.333 -58.333 -175 -175v-1100
c0.666992 -116.667 59 -175 175 -175h1101c116 0 174 58.667 174 176z" />
    <glyph glyph-name="ring" unicode="&#x2da;" 
d="M0 200v1100c0 133.333 66.667 200 200 200h1100c133.333 0 200 -66.667 200 -200v-1100c0 -133.333 -66.667 -200 -200 -200h-1100c-133.333 0 -200 66.667 -200 200zM1475 201v1099c0 116.667 -58.333 175 -175 175h-1100c-116 0 -174.333 -58.333 -175 -175v-1100
c0.666992 -116.667 59 -175 175 -175h1101c116 0 174 58.667 174 176z" />
    <glyph glyph-name="ogonek" unicode="&#x2db;" 
d="M0 200v1100c0 133.333 66.667 200 200 200h1100c133.333 0 200 -66.667 200 -200v-1100c0 -133.333 -66.667 -200 -200 -200h-1100c-133.333 0 -200 66.667 -200 200zM1475 201v1099c0 116.667 -58.333 175 -175 175h-1100c-116 0 -174.333 -58.333 -175 -175v-1100
c0.666992 -116.667 59 -175 175 -175h1101c116 0 174 58.667 174 176z" />
    <glyph glyph-name="tilde" unicode="&#x2dc;" 
d="M0 200v1100c0 133.333 66.667 200 200 200h1100c133.333 0 200 -66.667 200 -200v-1100c0 -133.333 -66.667 -200 -200 -200h-1100c-133.333 0 -200 66.667 -200 200zM1475 201v1099c0 116.667 -58.333 175 -175 175h-1100c-116 0 -174.333 -58.333 -175 -175v-1100
c0.666992 -116.667 59 -175 175 -175h1101c116 0 174 58.667 174 176z" />
    <glyph glyph-name="hungarumlaut" unicode="&#x2dd;" 
d="M0 200v1100c0 133.333 66.667 200 200 200h1100c133.333 0 200 -66.667 200 -200v-1100c0 -133.333 -66.667 -200 -200 -200h-1100c-133.333 0 -200 66.667 -200 200zM1475 201v1099c0 116.667 -58.333 175 -175 175h-1100c-116 0 -174.333 -58.333 -175 -175v-1100
c0.666992 -116.667 59 -175 175 -175h1101c116 0 174 58.667 174 176z" />
    <glyph glyph-name="endash" unicode="&#x2013;" horiz-adv-x="1250" 
d="M1100 625h-1100v200h1100v-200z" />
    <glyph glyph-name="emdash" unicode="&#x2014;" horiz-adv-x="1250" 
d="M1100 625h-1100v200h1100v-200z" />
    <glyph glyph-name="quoteleft" unicode="&#x2018;" horiz-adv-x="550" 
d="M400 1650v-200h-200v-550h-200v750h400z" />
    <glyph glyph-name="quoteright" unicode="&#x2019;" horiz-adv-x="550" 
d="M400 1650v-750h-200v550h-200v200h400z" />
    <glyph glyph-name="quotesinglbase" unicode="&#x201a;" 
d="M0 200v1100c0 133.333 66.667 200 200 200h1100c133.333 0 200 -66.667 200 -200v-1100c0 -133.333 -66.667 -200 -200 -200h-1100c-133.333 0 -200 66.667 -200 200zM1475 201v1099c0 116.667 -58.333 175 -175 175h-1100c-116 0 -174.333 -58.333 -175 -175v-1100
c0.666992 -116.667 59 -175 175 -175h1101c116 0 174 58.667 174 176z" />
    <glyph glyph-name="quotedblleft" unicode="&#x201c;" horiz-adv-x="1000" 
d="M625 700l-625 750h225l425 -510v510h200v-750h-225z" />
    <glyph glyph-name="quotedblright" unicode="&#x201d;" horiz-adv-x="1000" 
d="M0 700v750h200v-510l425 510h225l-625 -750h-225z" />
    <glyph glyph-name="quotedblbase" unicode="&#x201e;" 
d="M0 200v1100c0 133.333 66.667 200 200 200h1100c133.333 0 200 -66.667 200 -200v-1100c0 -133.333 -66.667 -200 -200 -200h-1100c-133.333 0 -200 66.667 -200 200zM1475 201v1099c0 116.667 -58.333 175 -175 175h-1100c-116 0 -174.333 -58.333 -175 -175v-1100
c0.666992 -116.667 59 -175 175 -175h1101c116 0 174 58.667 174 176z" />
    <glyph glyph-name="dagger" unicode="&#x2020;" 
d="M0 200v1100c0 133.333 66.667 200 200 200h1100c133.333 0 200 -66.667 200 -200v-1100c0 -133.333 -66.667 -200 -200 -200h-1100c-133.333 0 -200 66.667 -200 200zM1475 201v1099c0 116.667 -58.333 175 -175 175h-1100c-116 0 -174.333 -58.333 -175 -175v-1100
c0.666992 -116.667 59 -175 175 -175h1101c116 0 174 58.667 174 176z" />
    <glyph glyph-name="daggerdbl" unicode="&#x2021;" 
d="M0 200v1100c0 133.333 66.667 200 200 200h1100c133.333 0 200 -66.667 200 -200v-1100c0 -133.333 -66.667 -200 -200 -200h-1100c-133.333 0 -200 66.667 -200 200zM1475 201v1099c0 116.667 -58.333 175 -175 175h-1100c-116 0 -174.333 -58.333 -175 -175v-1100
c0.666992 -116.667 59 -175 175 -175h1101c116 0 174 58.667 174 176z" />
    <glyph glyph-name="bullet" unicode="&#x2022;" 
d="M0 200v1100c0 133.333 66.667 200 200 200h1100c133.333 0 200 -66.667 200 -200v-1100c0 -133.333 -66.667 -200 -200 -200h-1100c-133.333 0 -200 66.667 -200 200zM1475 201v1099c0 116.667 -58.333 175 -175 175h-1100c-116 0 -174.333 -58.333 -175 -175v-1100
c0.666992 -116.667 59 -175 175 -175h1101c116 0 174 58.667 174 176z" />
    <glyph glyph-name="ellipsis" unicode="&#x2026;" 
d="M0 200v1100c0 133.333 66.667 200 200 200h1100c133.333 0 200 -66.667 200 -200v-1100c0 -133.333 -66.667 -200 -200 -200h-1100c-133.333 0 -200 66.667 -200 200zM1475 201v1099c0 116.667 -58.333 175 -175 175h-1100c-116 0 -174.333 -58.333 -175 -175v-1100
c0.666992 -116.667 59 -175 175 -175h1101c116 0 174 58.667 174 176z" />
    <glyph glyph-name="guilsinglleft" unicode="&#x2039;" 
d="M0 200v1100c0 133.333 66.667 200 200 200h1100c133.333 0 200 -66.667 200 -200v-1100c0 -133.333 -66.667 -200 -200 -200h-1100c-133.333 0 -200 66.667 -200 200zM1475 201v1099c0 116.667 -58.333 175 -175 175h-1100c-116 0 -174.333 -58.333 -175 -175v-1100
c0.666992 -116.667 59 -175 175 -175h1101c116 0 174 58.667 174 176z" />
    <glyph glyph-name="guilsinglright" unicode="&#x203a;" 
d="M0 200v1100c0 133.333 66.667 200 200 200h1100c133.333 0 200 -66.667 200 -200v-1100c0 -133.333 -66.667 -200 -200 -200h-1100c-133.333 0 -200 66.667 -200 200zM1475 201v1099c0 116.667 -58.333 175 -175 175h-1100c-116 0 -174.333 -58.333 -175 -175v-1100
c0.666992 -116.667 59 -175 175 -175h1101c116 0 174 58.667 174 176z" />
    <glyph glyph-name="fraction" unicode="&#x2044;" 
d="M0 200v1100c0 133.333 66.667 200 200 200h1100c133.333 0 200 -66.667 200 -200v-1100c0 -133.333 -66.667 -200 -200 -200h-1100c-133.333 0 -200 66.667 -200 200zM1475 201v1099c0 116.667 -58.333 175 -175 175h-1100c-116 0 -174.333 -58.333 -175 -175v-1100
c0.666992 -116.667 59 -175 175 -175h1101c116 0 174 58.667 174 176z" />
    <glyph glyph-name="fraction" unicode="&#x2215;" 
d="M0 200v1100c0 133.333 66.667 200 200 200h1100c133.333 0 200 -66.667 200 -200v-1100c0 -133.333 -66.667 -200 -200 -200h-1100c-133.333 0 -200 66.667 -200 200zM1475 201v1099c0 116.667 -58.333 175 -175 175h-1100c-116 0 -174.333 -58.333 -175 -175v-1100
c0.666992 -116.667 59 -175 175 -175h1101c116 0 174 58.667 174 176z" />
    <glyph glyph-name="franc" unicode="&#x20a3;" horiz-adv-x="1550" 
d="M200 1051h-200v199h200v200h200v-200h200v200h200v-200h600v-200l-750 -1050h-250l750 1050h-350v-200h-200v200l-200 1v-201h-200v201z" />
    <glyph glyph-name="lira" unicode="&#x20a4;" horiz-adv-x="1550" 
d="M200 1051h-200v199h200v200h200v-200h200v200h200v-200h600v-200l-750 -1050h-250l750 1050h-350v-200h-200v200l-200 1v-201h-200v201z" />
    <glyph glyph-name="peseta" unicode="&#x20a7;" horiz-adv-x="1550" 
d="M200 1051h-200v199h200v200h200v-200h200v200h200v-200h600v-200l-750 -1050h-250l750 1050h-350v-200h-200v200l-200 1v-201h-200v201z" />
    <glyph glyph-name="Euro" unicode="&#x20ac;" horiz-adv-x="1550" 
d="M200 1051h-200v199h200v200h200v-200h200v200h200v-200h600v-200l-750 -1050h-250l750 1050h-350v-200h-200v200l-200 1v-201h-200v201z" />
    <glyph glyph-name="uni2116" unicode="&#x2116;" 
d="M0 200v1100c0 133.333 66.667 200 200 200h1100c133.333 0 200 -66.667 200 -200v-1100c0 -133.333 -66.667 -200 -200 -200h-1100c-133.333 0 -200 66.667 -200 200zM1475 201v1099c0 116.667 -58.333 175 -175 175h-1100c-116 0 -174.333 -58.333 -175 -175v-1100
c0.666992 -116.667 59 -175 175 -175h1101c116 0 174 58.667 174 176z" />
    <glyph glyph-name="trademark" unicode="&#x2122;" 
d="M0 200v1100c0 133.333 66.667 200 200 200h1100c133.333 0 200 -66.667 200 -200v-1100c0 -133.333 -66.667 -200 -200 -200h-1100c-133.333 0 -200 66.667 -200 200zM1475 201v1099c0 116.667 -58.333 175 -175 175h-1100c-116 0 -174.333 -58.333 -175 -175v-1100
c0.666992 -116.667 59 -175 175 -175h1101c116 0 174 58.667 174 176z" />
    <glyph glyph-name="partialdiff" unicode="&#x2202;" 
d="M0 200v1100c0 133.333 66.667 200 200 200h1100c133.333 0 200 -66.667 200 -200v-1100c0 -133.333 -66.667 -200 -200 -200h-1100c-133.333 0 -200 66.667 -200 200zM1475 201v1099c0 116.667 -58.333 175 -175 175h-1100c-116 0 -174.333 -58.333 -175 -175v-1100
c0.666992 -116.667 59 -175 175 -175h1101c116 0 174 58.667 174 176z" />
    <glyph glyph-name="Delta" unicode="&#x2206;" 
d="M0 200v1100c0 133.333 66.667 200 200 200h1100c133.333 0 200 -66.667 200 -200v-1100c0 -133.333 -66.667 -200 -200 -200h-1100c-133.333 0 -200 66.667 -200 200zM1475 201v1099c0 116.667 -58.333 175 -175 175h-1100c-116 0 -174.333 -58.333 -175 -175v-1100
c0.666992 -116.667 59 -175 175 -175h1101c116 0 174 58.667 174 176z" />
    <glyph glyph-name="product" unicode="&#x220f;" 
d="M0 200v1100c0 133.333 66.667 200 200 200h1100c133.333 0 200 -66.667 200 -200v-1100c0 -133.333 -66.667 -200 -200 -200h-1100c-133.333 0 -200 66.667 -200 200zM1475 201v1099c0 116.667 -58.333 175 -175 175h-1100c-116 0 -174.333 -58.333 -175 -175v-1100
c0.666992 -116.667 59 -175 175 -175h1101c116 0 174 58.667 174 176z" />
    <glyph glyph-name="summation" unicode="&#x2211;" 
d="M0 200v1100c0 133.333 66.667 200 200 200h1100c133.333 0 200 -66.667 200 -200v-1100c0 -133.333 -66.667 -200 -200 -200h-1100c-133.333 0 -200 66.667 -200 200zM1475 201v1099c0 116.667 -58.333 175 -175 175h-1100c-116 0 -174.333 -58.333 -175 -175v-1100
c0.666992 -116.667 59 -175 175 -175h1101c116 0 174 58.667 174 176z" />
    <glyph glyph-name="minus" unicode="&#x2212;" horiz-adv-x="1250" 
d="M1100 625h-1100v200h1100v-200z" />
    <glyph glyph-name="radical" unicode="&#x221a;" 
d="M0 200v1100c0 133.333 66.667 200 200 200h1100c133.333 0 200 -66.667 200 -200v-1100c0 -133.333 -66.667 -200 -200 -200h-1100c-133.333 0 -200 66.667 -200 200zM1475 201v1099c0 116.667 -58.333 175 -175 175h-1100c-116 0 -174.333 -58.333 -175 -175v-1100
c0.666992 -116.667 59 -175 175 -175h1101c116 0 174 58.667 174 176z" />
    <glyph glyph-name="infinity" unicode="&#x221e;" 
d="M0 200v1100c0 133.333 66.667 200 200 200h1100c133.333 0 200 -66.667 200 -200v-1100c0 -133.333 -66.667 -200 -200 -200h-1100c-133.333 0 -200 66.667 -200 200zM1475 201v1099c0 116.667 -58.333 175 -175 175h-1100c-116 0 -174.333 -58.333 -175 -175v-1100
c0.666992 -116.667 59 -175 175 -175h1101c116 0 174 58.667 174 176z" />
    <glyph glyph-name="integral" unicode="&#x222b;" 
d="M0 200v1100c0 133.333 66.667 200 200 200h1100c133.333 0 200 -66.667 200 -200v-1100c0 -133.333 -66.667 -200 -200 -200h-1100c-133.333 0 -200 66.667 -200 200zM1475 201v1099c0 116.667 -58.333 175 -175 175h-1100c-116 0 -174.333 -58.333 -175 -175v-1100
c0.666992 -116.667 59 -175 175 -175h1101c116 0 174 58.667 174 176z" />
    <glyph glyph-name="approxequal" unicode="&#x2248;" 
d="M0 200v1100c0 133.333 66.667 200 200 200h1100c133.333 0 200 -66.667 200 -200v-1100c0 -133.333 -66.667 -200 -200 -200h-1100c-133.333 0 -200 66.667 -200 200zM1475 201v1099c0 116.667 -58.333 175 -175 175h-1100c-116 0 -174.333 -58.333 -175 -175v-1100
c0.666992 -116.667 59 -175 175 -175h1101c116 0 174 58.667 174 176z" />
    <glyph glyph-name="lessequal" unicode="&#x2264;" 
d="M0 200v1100c0 133.333 66.667 200 200 200h1100c133.333 0 200 -66.667 200 -200v-1100c0 -133.333 -66.667 -200 -200 -200h-1100c-133.333 0 -200 66.667 -200 200zM1475 201v1099c0 116.667 -58.333 175 -175 175h-1100c-116 0 -174.333 -58.333 -175 -175v-1100
c0.666992 -116.667 59 -175 175 -175h1101c116 0 174 58.667 174 176z" />
    <glyph glyph-name="greaterequal" unicode="&#x2265;" 
d="M0 200v1100c0 133.333 66.667 200 200 200h1100c133.333 0 200 -66.667 200 -200v-1100c0 -133.333 -66.667 -200 -200 -200h-1100c-133.333 0 -200 66.667 -200 200zM1475 201v1099c0 116.667 -58.333 175 -175 175h-1100c-116 0 -174.333 -58.333 -175 -175v-1100
c0.666992 -116.667 59 -175 175 -175h1101c116 0 174 58.667 174 176z" />
    <glyph glyph-name="uniF001" unicode="&#xf001;" horiz-adv-x="1073" 
 />
    <glyph glyph-name="uniF001" unicode="&#xfb01;" horiz-adv-x="1073" 
 />
    <glyph glyph-name="uniF002" unicode="&#xf002;" horiz-adv-x="1081" 
 />
    <glyph glyph-name="uniF002" unicode="&#xfb02;" horiz-adv-x="1081" 
 />
    <glyph glyph-name="nonmarkingreturn" horiz-adv-x="508" 
 />
    </font>
</defs>
</svg>
